<?xml version="1.0" standalone="no"?>
<!DOCTYPE svg PUBLIC "-//W3C//DTD SVG 1.1//EN" "http://www.w3.org/Graphics/SVG/1.1/DTD/svg11.dtd" >
<svg xmlns="http://www.w3.org/2000/svg" xmlns:xlink="http://www.w3.org/1999/xlink" version="1.1">
<metadata>
Created by FontForge 20170731 at Fri Feb 16 16:57:33 2018
 By Aleksey,,,
Copyright 2018 IBM Corp. All rights reserved.
</metadata>
<defs>
<font id="IBMPlexSansCond" horiz-adv-x="540" >
  <font-face 
    font-family="IBM Plex Sans Condensed"
    font-weight="400"
    font-stretch="condensed"
    units-per-em="1000"
    panose-1="2 11 5 6 5 2 3 0 2 3"
    ascent="780"
    descent="-220"
    x-height="516"
    cap-height="698"
    bbox="-241 -246 1122 1126"
    underline-thickness="60"
    underline-position="-185"
    unicode-range="U+000D-FB02"
  />
<missing-glyph horiz-adv-x="424" 
d="M32 780h360v-780h-360v780zM332 60v660h-240v-660h240z" />
    <glyph glyph-name="fi" unicode="fi" horiz-adv-x="522" 
d="M101 449h-75v67h75v126q0 51 23.5 74.5t74.5 23.5h77v-67h-99v-157h269v-516h-76v449h-193v-449h-76v449zM408 641q-47 0 -47 41v16q0 41 47 41t47 -41v-16q0 -41 -47 -41z" />
    <glyph glyph-name=".notdef" horiz-adv-x="424" 
d="M32 780h360v-780h-360v780zM332 60v660h-240v-660h240z" />
    <glyph glyph-name=".null" horiz-adv-x="0" 
 />
    <glyph glyph-name=".null" horiz-adv-x="0" 
 />
    <glyph glyph-name="uni000D" unicode="&#xd;" horiz-adv-x="212" 
 />
    <glyph glyph-name="space" unicode=" " horiz-adv-x="212" 
 />
    <glyph glyph-name="exclam" unicode="!" horiz-adv-x="258" 
d="M110 183l-23 311v204h84v-204l-23 -311h-38zM129 -12q-59 0 -59 51v16q0 51 59 51t59 -51v-16q0 -51 -59 -51z" />
    <glyph glyph-name="quotedbl" unicode="&#x22;" horiz-adv-x="382" 
d="M76 463v277h68v-277h-68zM238 463v277h68v-277h-68z" />
    <glyph glyph-name="numbersign" unicode="#" horiz-adv-x="637" 
d="M364 207h-142l-31 -207h-58l31 207h-113v54h122l28 176h-114v54h123l31 207h58l-31 -207h142l31 207h58l-31 -207h113v-54h-122l-28 -176h114v-54h-123l-31 -207h-58zM373 261l28 176h-142l-28 -176h142z" />
    <glyph glyph-name="dollar" unicode="$" horiz-adv-x="538" 
d="M490 196q0 -92 -49 -141.5t-136 -57.5v-79h-64v80q-63 7 -112 37.5t-81 73.5l55 51q23 -35 59 -61.5t81 -34.5v266q-95 24 -136 68t-41 121q0 81 48 127t127 54v80h64v-80q63 -6 107 -33.5t72 -71.5l-56 -43q-18 29 -48.5 52t-76.5 30v-244q48 -12 83.5 -28.5t58.5 -40
t34 -54t11 -71.5zM141 526q0 -54 25.5 -81t76.5 -40v229q-49 -7 -75.5 -35t-26.5 -73zM416 189q0 51 -26.5 80.5t-86.5 46.5v-252q55 7 84 38.5t29 86.5z" />
    <glyph glyph-name="percent" unicode="%" horiz-adv-x="837" 
d="M164 0l436 698h73l-436 -698h-73zM202 314q-69 0 -106.5 46.5t-37.5 151.5t37.5 151.5t106.5 46.5t106.5 -46.5t37.5 -151.5t-37.5 -151.5t-106.5 -46.5zM202 364q38 0 57 25t19 83v80q0 58 -19 83t-57 25t-57 -25t-19 -83v-80q0 -58 19 -83t57 -25zM635 -12
q-69 0 -106.5 46.5t-37.5 151.5t37.5 151.5t106.5 46.5t106.5 -46.5t37.5 -151.5t-37.5 -151.5t-106.5 -46.5zM635 38q38 0 57 25t19 83v80q0 58 -19 83t-57 25t-57 -25t-19 -83v-80q0 -58 19 -83t57 -25z" />
    <glyph glyph-name="ampersand" unicode="&#x26;" horiz-adv-x="626" 
d="M425 103h-10q-3 -21 -15.5 -41.5t-32.5 -37t-47.5 -26.5t-60.5 -10q-96 0 -145.5 52t-49.5 141q0 72 34.5 119.5t93.5 77.5q-33 38 -57 84.5t-24 93.5q0 72 42.5 113t117.5 41t117.5 -41t42.5 -113q0 -33 -10 -59.5t-28 -49t-42.5 -42.5t-54.5 -38l138 -172q14 38 21 82
t9 89h124v-65h-63q-13 -88 -45 -154l124 -147h-98zM271 647q-39 0 -62.5 -21.5t-23.5 -62.5v-14q0 -31 20.5 -68.5t49.5 -70.5q44 25 73 60t29 79v14q0 41 -23.5 62.5t-62.5 21.5zM267 53q44 0 76.5 20t54.5 56l-166 205q-45 -23 -67.5 -54.5t-22.5 -82.5v-29q0 -57 34 -86
t91 -29z" />
    <glyph glyph-name="quotesingle" unicode="'" horiz-adv-x="220" 
d="M76 463v277h68v-277h-68z" />
    <glyph glyph-name="parenleft" unicode="(" horiz-adv-x="302" 
d="M72 311q0 77 12.5 144.5t34.5 124.5t51.5 102t64.5 78h72q-38 -38 -68 -84t-51 -97t-32.5 -104.5t-11.5 -105.5v-116q0 -52 11.5 -105.5t32.5 -104.5t51 -97.5t68 -83.5h-72q-35 33 -64.5 78t-51.5 102t-34.5 124.5t-12.5 144.5z" />
    <glyph glyph-name="parenright" unicode=")" horiz-adv-x="302" 
d="M230 311q0 -77 -12.5 -144.5t-34.5 -124.5t-52 -102t-64 -78h-72q37 37 67.5 83.5t51.5 97.5t32.5 104.5t11.5 105.5v116q0 52 -11.5 105.5t-32.5 104.5t-51.5 97t-67.5 84h72q34 -33 64 -78t52 -102t34.5 -124.5t12.5 -144.5z" />
    <glyph glyph-name="asterisk" unicode="*" horiz-adv-x="414" 
d="M284 404l-73 120h-8l-73 -120l-57 41l92 106l-3 8l-136 32l22 66l129 -54l7 5l-12 139h70l-12 -139l7 -5l129 54l22 -66l-136 -32l-3 -8l92 -106z" />
    <glyph glyph-name="plus" unicode="+" 
d="M234 91v182h-174v64h174v182h72v-182h174v-64h-174v-182h-72z" />
    <glyph glyph-name="comma" unicode="," horiz-adv-x="248" 
d="M124 106q59 0 59 -51v-16q0 -39 -23.5 -86.5t-62.5 -84.5h-62q27 32 44 59.5t25 62.5q-39 9 -39 49v16q0 51 59 51z" />
    <glyph glyph-name="hyphen" unicode="-" horiz-adv-x="360" 
d="M60 263v82h240v-82h-240z" />
    <glyph glyph-name="period" unicode="." horiz-adv-x="248" 
d="M124 -12q-59 0 -59 51v16q0 51 59 51t59 -51v-16q0 -51 -59 -51z" />
    <glyph glyph-name="slash" unicode="/" horiz-adv-x="349" 
d="M8 -151l237 891h67l-237 -891h-67z" />
    <glyph glyph-name="zero" unicode="0" 
d="M270 -12q-57 0 -98 20t-67.5 63.5t-39.5 112t-13 165.5t13 165.5t39.5 112t67.5 63.5t98 20t98 -20t67.5 -63.5t39.5 -112t13 -165.5t-13 -165.5t-39.5 -112t-67.5 -63.5t-98 -20zM270 57q72 0 103 51.5t31 144.5v192q0 93 -31 144.5t-103 51.5t-103 -51.5t-31 -144.5
v-192q0 -93 31 -144.5t103 -51.5z" />
    <glyph glyph-name="one" unicode="1" 
d="M79 0v70h174v555l-172 -112l-34 55l198 130h88v-628h160v-70h-414z" />
    <glyph glyph-name="two" unicode="2" 
d="M481 0h-415v83l212 220q51 52 73.5 96.5t22.5 88.5v26q0 125 -109 125q-54 0 -86.5 -28t-45.5 -79l-70 28q10 32 28 59.5t43.5 47.5t58.5 31.5t74 11.5q98 0 144.5 -50.5t46.5 -148.5q0 -34 -6 -63.5t-21 -59t-40.5 -62t-64.5 -73.5l-174 -183h329v-70z" />
    <glyph glyph-name="three" unicode="3" 
d="M235 401q63 0 94.5 30.5t31.5 83.5v15q0 59 -30 84t-81 25q-48 0 -78 -22t-50 -64l-58 45q12 21 29 41.5t40.5 36t53.5 25t68 9.5q43 0 78 -10.5t60 -32t38.5 -54.5t13.5 -78q0 -35 -10 -63t-27 -48t-39.5 -33t-48.5 -18v-10q28 -3 53 -15t44 -33t29.5 -52t10.5 -72
q0 -94 -55.5 -148.5t-158.5 -54.5q-41 0 -73 10t-56.5 26t-43 37t-33.5 43l60 45q24 -41 55.5 -65.5t88.5 -24.5q65 0 98.5 31.5t33.5 96.5v16q0 65 -33.5 96.5t-98.5 31.5h-74v70h68z" />
    <glyph glyph-name="four" unicode="4" 
d="M335 0v137h-301v71l260 490h117v-494h90v-67h-90v-137h-76zM107 204h228v430h-10z" />
    <glyph glyph-name="five" unicode="5" 
d="M450 628h-276l-18 -277h10q14 36 45 59.5t84 23.5q41 0 75 -13.5t58.5 -40.5t38 -67.5t13.5 -94.5q0 -112 -55.5 -171t-156.5 -59q-70 0 -122.5 34t-78.5 84l60 45q24 -45 58 -68.5t83 -23.5q66 0 97 36t31 105v24q0 69 -31 105t-97 36q-45 0 -70 -17t-43 -42l-68 9
l23 383h340v-70z" />
    <glyph glyph-name="six" unicode="6" 
d="M270 -12q-105 0 -159 67.5t-54 197.5q0 79 21 148t53.5 126t72.5 100.5t79 70.5h103q-51 -41 -91 -79.5t-70 -80.5t-51 -91.5t-34 -111.5h10q16 42 52 70.5t96 28.5q85 0 135 -53.5t50 -162.5t-54 -169.5t-159 -60.5zM270 58q63 0 96 35.5t33 107.5v20q0 72 -33 107.5
t-96 35.5t-96 -35.5t-33 -107.5v-20q0 -72 33 -107.5t96 -35.5z" />
    <glyph glyph-name="seven" unicode="7" 
d="M157 0l238 629h-263v-130h-71v199h415v-70l-234 -628h-85z" />
    <glyph glyph-name="eight" unicode="8" 
d="M270 -12q-108 0 -163.5 54t-55.5 148q0 80 38 122t95 50v10q-50 11 -82 53t-32 111q0 88 52.5 131t147.5 43t147.5 -43t52.5 -131q0 -69 -32 -111t-82 -53v-10q57 -8 95 -50t38 -122q0 -94 -55.5 -148t-163.5 -54zM270 58q64 0 99.5 32t35.5 93v26q0 61 -35.5 93
t-99.5 32t-99.5 -32t-35.5 -93v-26q0 -61 35.5 -93t99.5 -32zM270 401q118 0 118 109v21q0 109 -118 109t-118 -109v-21q0 -109 118 -109z" />
    <glyph glyph-name="nine" unicode="9" 
d="M483 445q0 -79 -21 -148t-53.5 -126t-72.5 -100.5t-79 -70.5h-103q51 41 91 79.5t70 80.5t51 91.5t34 111.5h-10q-16 -42 -52 -70.5t-96 -28.5q-85 0 -135 53.5t-50 162.5t54 169.5t159 60.5t159 -67.5t54 -197.5zM270 334q63 0 96 35.5t33 107.5v20q0 72 -33 107.5
t-96 35.5t-96 -35.5t-33 -107.5v-20q0 -72 33 -107.5t96 -35.5z" />
    <glyph glyph-name="colon" unicode=":" horiz-adv-x="258" 
d="M129 -12q-59 0 -59 51v16q0 51 59 51t59 -51v-16q0 -51 -59 -51zM129 404q-59 0 -59 51v16q0 51 59 51t59 -51v-16q0 -51 -59 -51z" />
    <glyph glyph-name="semicolon" unicode=";" horiz-adv-x="258" 
d="M129 106q59 0 59 -51v-16q0 -39 -23.5 -86.5t-62.5 -84.5h-62q27 32 44 59.5t25 62.5q-39 9 -39 49v16q0 51 59 51zM129 404q-59 0 -59 51v16q0 51 59 51t59 -51v-16q0 -51 -59 -51z" />
    <glyph glyph-name="less" unicode="&#x3c;" 
d="M82 236v78l376 248v-81l-306 -201v-10l306 -201v-81z" />
    <glyph glyph-name="equal" unicode="=" 
d="M60 372v64h420v-64h-420zM60 174v64h420v-64h-420z" />
    <glyph glyph-name="greater" unicode="&#x3e;" 
d="M82 69l306 201v10l-306 201v81l376 -248v-78l-376 -248v81z" />
    <glyph glyph-name="question" unicode="?" horiz-adv-x="431" 
d="M160 206v165q74 4 115 37t41 98v26q0 52 -28 80.5t-76 28.5t-80.5 -29.5t-44.5 -87.5l-67 26q18 72 67 116t125 44q91 0 138.5 -47t47.5 -141q0 -89 -43 -136.5t-122 -68.5v-111h-73zM196 -12q-59 0 -59 51v16q0 51 59 51t59 -51v-16q0 -51 -59 -51z" />
    <glyph glyph-name="at" unicode="@" horiz-adv-x="803" 
d="M611 -120h-208q-81 0 -145.5 28t-109.5 80.5t-69 128.5t-24 171q0 96 24.5 174t70.5 133t112 85t149 30t146 -26.5t105.5 -76.5t64 -122t21.5 -163q0 -57 -10.5 -103.5t-31 -79.5t-51 -51t-71.5 -18q-50 0 -74.5 20.5t-30.5 55.5h-10q-6 -35 -31 -55.5t-62 -20.5
q-32 0 -60 12.5t-48.5 39t-32.5 68.5t-12 101t12 101t32.5 68.5t48.5 39t60 12.5q37 0 62 -21t31 -56h10v67h72v-306q0 -43 11.5 -56.5t35.5 -13.5q42 0 64.5 47t22.5 130v60q0 70 -20.5 124.5t-57.5 92.5t-87 58t-110 20q-66 0 -119.5 -24t-91.5 -67t-58.5 -103t-20.5 -132
v-81q0 -71 20 -129.5t57 -100.5t89.5 -65.5t117.5 -23.5h207v-52zM393 134q44 0 65 25.5t21 73.5v122q0 39 -21 65.5t-65 26.5q-47 0 -69.5 -29.5t-22.5 -82.5v-89q0 -53 22.5 -82.5t69.5 -29.5z" />
    <glyph glyph-name="A" unicode="A" horiz-adv-x="579" 
d="M476 0l-62 209h-251l-62 -209h-80l218 698h100l219 -698h-82zM315 540l-22 87h-10l-22 -87l-79 -265h214z" />
    <glyph glyph-name="B" unicode="B" horiz-adv-x="589" 
d="M83 698h264q79 0 121.5 -44.5t42.5 -135.5q0 -42 -10 -69.5t-25.5 -44t-34.5 -24.5t-37 -9v-10q18 0 40.5 -7.5t42 -26t33 -49t13.5 -76.5q0 -96 -44 -149t-115 -53h-291v698zM163 70h187q48 0 72.5 25.5t24.5 79.5v46q0 54 -24.5 79.5t-72.5 25.5h-187v-256zM163 396
h174q43 0 66 22.5t23 70.5v46q0 48 -23 70.5t-66 22.5h-174v-232z" />
    <glyph glyph-name="C" unicode="C" horiz-adv-x="561" 
d="M305 -12q-59 0 -106 21.5t-79.5 65.5t-50 112.5t-17.5 161.5t17.5 161.5t50 112.5t79.5 65.5t106 21.5q86 0 138 -36.5t82 -111.5l-64 -39q-19 57 -54.5 86.5t-101.5 29.5q-80 0 -123.5 -57.5t-43.5 -154.5v-156q0 -97 43.5 -154.5t123.5 -57.5q68 0 105 31.5t56 91.5
l64 -40q-30 -75 -84.5 -114.5t-140.5 -39.5z" />
    <glyph glyph-name="D" unicode="D" horiz-adv-x="607" 
d="M83 698h219q121 0 187 -83.5t66 -265.5t-66 -265.5t-187 -83.5h-219v698zM302 70q75 0 121 52t46 149v156q0 97 -46 149t-121 52h-139v-558h139z" />
    <glyph glyph-name="E" unicode="E" horiz-adv-x="526" 
d="M83 0v698h386v-70h-306v-240h287v-70h-287v-248h306v-70h-386z" />
    <glyph glyph-name="F" unicode="F" horiz-adv-x="505" 
d="M83 0v698h377v-70h-297v-240h270v-70h-270v-318h-80z" />
    <glyph glyph-name="G" unicode="G" horiz-adv-x="627" 
d="M489 97h-10q-11 -47 -53.5 -78t-119.5 -31q-57 0 -104 21.5t-80 65.5t-51.5 112.5t-18.5 161.5q0 187 70 274t197 87q92 0 147 -39.5t86 -108.5l-66 -40q-20 55 -61 86t-106 31q-87 0 -134 -57.5t-47 -154.5v-156q0 -97 47 -154.5t134 -57.5q34 0 64.5 10t53 29.5
t35.5 48t13 64.5v76h-138v70h216v-357h-74v97z" />
    <glyph glyph-name="H" unicode="H" horiz-adv-x="637" 
d="M474 318h-311v-318h-80v698h80v-310h311v310h80v-698h-80v318z" />
    <glyph glyph-name="I" unicode="I" horiz-adv-x="362" 
d="M53 0v66h88v566h-88v66h256v-66h-88v-566h88v-66h-256z" />
    <glyph glyph-name="J" unicode="J" horiz-adv-x="462" 
d="M384 698v-538q0 -40 -13 -71.5t-37 -54t-57.5 -34.5t-73.5 -12q-80 0 -123.5 42.5t-56.5 111.5l72 18q9 -45 33 -73t75 -28q48 0 74.5 28.5t26.5 87.5v453h-214v70h294z" />
    <glyph glyph-name="K" unicode="K" horiz-adv-x="574" 
d="M254 346l-91 -114v-232h-80v698h80v-233l-6 -144h10l103 144l174 233h92l-230 -299l245 -399h-94z" />
    <glyph glyph-name="L" unicode="L" horiz-adv-x="453" 
d="M83 0v698h80v-628h265v-70h-345z" />
    <glyph glyph-name="M" unicode="M" horiz-adv-x="730" 
d="M570 479l7 120h-10l-52 -120l-150 -308l-150 308l-52 118h-10l7 -118v-479h-78v698h106l126 -271l47 -129h8l47 129l126 271h106v-698h-78v479z" />
    <glyph glyph-name="N" unicode="N" horiz-adv-x="637" 
d="M225 453l-61 144h-10l7 -144v-453h-78v698h98l232 -453l61 -144h10l-7 144v453h78v-698h-98z" />
    <glyph glyph-name="O" unicode="O" horiz-adv-x="638" 
d="M319 -12q-127 0 -197 87t-70 274t70 274t197 87t197 -87t70 -274t-70 -274t-197 -87zM319 59q87 0 134 57.5t47 154.5v156q0 97 -47 154.5t-134 57.5t-134 -57.5t-47 -154.5v-156q0 -97 47 -154.5t134 -57.5z" />
    <glyph glyph-name="P" unicode="P" horiz-adv-x="548" 
d="M83 0v698h257q173 0 173 -199t-173 -199h-177v-300h-80zM163 370h175q89 0 89 96v66q0 96 -89 96h-175v-258z" />
    <glyph glyph-name="Q" unicode="Q" horiz-adv-x="638" 
d="M457 -163h-92q-40 0 -60 22.5t-20 55.5v75q-111 10 -172 97.5t-61 261.5q0 187 70 274t197 87t197 -87t70 -274q0 -171 -59 -258t-166 -100v-87h96v-67zM319 59q87 0 134 57.5t47 154.5v156q0 97 -47 154.5t-134 57.5t-134 -57.5t-47 -154.5v-156q0 -97 47 -154.5
t134 -57.5z" />
    <glyph glyph-name="R" unicode="R" horiz-adv-x="578" 
d="M163 0h-80v698h257q173 0 173 -199q0 -168 -124 -194l141 -305h-90l-131 300h-146v-300zM338 368q89 0 89 96v68q0 96 -89 96h-175v-260h175z" />
    <glyph glyph-name="S" unicode="S" horiz-adv-x="525" 
d="M261 -12q-75 0 -131 31.5t-93 87.5l58 48q32 -47 72 -72.5t94 -25.5q142 0 142 133q0 54 -26 82t-90 44l-52 13q-92 23 -135.5 67.5t-43.5 125.5q0 93 58 140.5t154 47.5q73 0 122.5 -27t86.5 -85l-59 -42q-27 42 -61.5 63.5t-91.5 21.5q-64 0 -97.5 -28t-33.5 -91
q0 -51 27.5 -77t88.5 -41l52 -13q49 -12 83 -28.5t55.5 -40.5t31 -56.5t9.5 -75.5q0 -99 -58.5 -150.5t-161.5 -51.5z" />
    <glyph glyph-name="T" unicode="T" horiz-adv-x="516" 
d="M298 628v-628h-80v628h-197v70h474v-70h-197z" />
    <glyph glyph-name="U" unicode="U" horiz-adv-x="611" 
d="M158 698v-452q0 -47 7.5 -82t24.5 -58.5t45.5 -35t69.5 -11.5q82 0 114.5 46.5t32.5 140.5v452h80v-436q0 -70 -12 -121.5t-38.5 -85.5t-70 -50.5t-106.5 -16.5t-106.5 16.5t-70 50.5t-38.5 85.5t-12 121.5v436h80z" />
    <glyph glyph-name="V" unicode="V" horiz-adv-x="549" 
d="M224 0l-205 698h84l132 -451l35 -177h10l35 177l133 451h82l-206 -698h-100z" />
    <glyph glyph-name="W" unicode="W" horiz-adv-x="808" 
d="M172 0l-153 698h83l94 -451l25 -167h10l25 167l95 451h108l95 -451l25 -167h10l25 167l94 451h81l-159 -698h-100l-96 451l-25 177h-10l-25 -177l-102 -451h-100z" />
    <glyph glyph-name="X" unicode="X" horiz-adv-x="555" 
d="M533 0h-93l-160 288h-10l-161 -288h-88l206 355l-199 343h93l152 -274h10l157 274h88l-201 -340z" />
    <glyph glyph-name="Y" unicode="Y" horiz-adv-x="534" 
d="M227 0v276l-216 422h91l161 -332h10l161 332h89l-216 -422v-276h-80z" />
    <glyph glyph-name="Z" unicode="Z" horiz-adv-x="524" 
d="M491 0h-458v72l359 556h-343v70h430v-72l-359 -556h371v-70z" />
    <glyph glyph-name="bracketleft" unicode="[" horiz-adv-x="286" 
d="M83 -138v898h150v-60h-84v-778h84v-60h-150z" />
    <glyph glyph-name="backslash" unicode="\" horiz-adv-x="349" 
d="M274 -151l-237 891h67l237 -891h-67z" />
    <glyph glyph-name="bracketright" unicode="]" horiz-adv-x="286" 
d="M203 760v-898h-150v60h84v778h-84v60h150z" />
    <glyph glyph-name="asciicircum" unicode="^" 
d="M437 297l-162 333h-10l-163 -333l-59 29l184 372h86l185 -372z" />
    <glyph glyph-name="underscore" unicode="_" horiz-adv-x="508" 
d="M27 -163v66h454v-66h-454z" />
    <glyph glyph-name="grave" unicode="`" 
d="M166 743l69 36l77 -169l-49 -25z" />
    <glyph glyph-name="a" unicode="a" horiz-adv-x="483" 
d="M402 0q-74 0 -74 74v10h-10q-13 -47 -47.5 -71.5t-82.5 -24.5q-75 0 -112 38t-37 112q0 72 47.5 114t148.5 42h93v57q0 57 -25.5 84t-80.5 27q-45 0 -72.5 -19.5t-47.5 -56.5l-45 42q20 42 64 70.5t104 28.5q88 0 133.5 -42.5t45.5 -125.5v-292h52v-67h-54zM207 54
q26 0 48.5 9t38.5 23.5t25 33t9 38.5v78h-95q-60 0 -87.5 -20t-27.5 -58v-28q0 -39 24 -57.5t65 -18.5z" />
    <glyph glyph-name="b" unicode="b" horiz-adv-x="524" 
d="M76 740h76v-308h10q15 51 48.5 73.5t81.5 22.5q46 0 81 -19t59 -54t36 -85t12 -112t-12 -112t-36 -85t-59 -54t-81 -19q-48 0 -81.5 22.5t-48.5 73.5h-10v-84h-76v740zM269 56q63 0 96 39.5t33 110.5v104q0 71 -33 110.5t-96 39.5q-24 0 -45.5 -7t-37 -20t-25 -31
t-9.5 -40v-208q0 -22 9.5 -40t25 -31t37 -20t45.5 -7z" />
    <glyph glyph-name="c" unicode="c" horiz-adv-x="454" 
d="M246 -12q-96 0 -150.5 63t-54.5 207t54.5 207t150.5 63q73 0 116.5 -33.5t63.5 -85.5l-63 -32q-13 40 -41 61.5t-76 21.5q-63 0 -93 -37t-30 -113v-104q0 -76 30 -113t93 -37q50 0 80.5 22t48.5 67l56 -39q-23 -54 -69.5 -86t-115.5 -32z" />
    <glyph glyph-name="d" unicode="d" horiz-adv-x="524" 
d="M372 84h-10q-15 -51 -48.5 -73.5t-81.5 -22.5q-46 0 -81 19t-59 54t-36 85t-12 112t12 112t36 85t59 54t81 19q48 0 81.5 -22.5t48.5 -73.5h10v308h76v-740h-76v84zM255 56q24 0 45.5 7t37 20t25 31t9.5 40v208q0 22 -9.5 40t-25 31t-37 20t-45.5 7q-63 0 -96 -39.5
t-33 -110.5v-104q0 -71 33 -110.5t96 -39.5z" />
    <glyph glyph-name="e" unicode="e" horiz-adv-x="495" 
d="M252 -12q-45 0 -84 15t-67 48t-44 84t-16 123t16 123t44 84t67 48t84 15t82.5 -15t63.5 -48t40.5 -84t14.5 -123v-19h-331v-33q0 -76 34.5 -113.5t95.5 -37.5q52 0 85 22.5t52 67.5l52 -38q-24 -53 -70.5 -86t-118.5 -33zM252 464q-62 0 -96 -39t-34 -115v-13h250v13
q0 154 -120 154z" />
    <glyph glyph-name="f" unicode="f" horiz-adv-x="294" 
d="M101 449h-75v67h75v126q0 51 23.5 74.5t74.5 23.5h77v-67h-99v-157h99v-67h-99v-449h-76v449z" />
    <glyph glyph-name="g" unicode="g" horiz-adv-x="477" 
d="M470 -58q0 -82 -55.5 -118t-171.5 -36q-111 0 -158.5 33t-47.5 95q0 42 21 66t54 30v14q-20 11 -31.5 28.5t-11.5 41.5q0 32 18.5 55t60.5 28v11q-40 20 -62.5 59.5t-22.5 99.5q0 88 48 133t129 45q48 0 87 -17v18q0 29 13 42t42 13h69v-67h-89v-28q26 -23 40.5 -57
t14.5 -82q0 -88 -48 -133t-129 -45q-24 0 -49 5q-28 -5 -42.5 -22.5t-14.5 -35.5q0 -20 14 -30t46 -10h113q87 0 125 -35t38 -101zM399 -63q0 34 -21 51.5t-72 17.5h-157q-23 -11 -32.5 -28t-9.5 -43q0 -39 24 -61.5t77 -22.5h66q62 0 93.5 20.5t31.5 65.5zM240 233
q47 0 73 24t26 74v37q0 50 -26 74t-73 24t-73 -24t-26 -74v-37q0 -50 26 -74t73 -24z" />
    <glyph glyph-name="h" unicode="h" horiz-adv-x="513" 
d="M76 740h76v-308h10q15 48 46.5 72t85.5 24q69 0 108.5 -47t39.5 -145v-336h-76v331q0 62 -25.5 95t-78.5 33q-46 0 -78 -28t-32 -79v-352h-76v740z" />
    <glyph glyph-name="i" unicode="i" horiz-adv-x="228" 
d="M114 641q-47 0 -47 41v16q0 41 47 41t47 -41v-16q0 -41 -47 -41zM76 516h76v-516h-76v516z" />
    <glyph glyph-name="j" unicode="j" horiz-adv-x="228" 
d="M76 516h76v-618q0 -51 -23.5 -74.5t-74.5 -23.5h-54v67h76v649zM114 641q-47 0 -47 41v16q0 41 47 41t47 -41v-16q0 -41 -47 -41z" />
    <glyph glyph-name="k" unicode="k" horiz-adv-x="477" 
d="M76 740h76v-380l-6 -101h8l72 97l129 160h92l-171 -205l186 -311h-91l-151 266l-68 -80v-186h-76v740z" />
    <glyph glyph-name="l" unicode="l" horiz-adv-x="247" 
d="M154 0q-41 0 -59.5 18.5t-18.5 59.5v662h76v-673h65v-67h-63z" />
    <glyph glyph-name="m" unicode="m" horiz-adv-x="787" 
d="M76 0v516h76v-84h10q15 48 44 72t82 24q48 0 81.5 -23.5t50.5 -72.5h10q16 48 50 72t90 24q66 0 106 -47t40 -145v-336h-76v331q0 62 -24.5 95t-75.5 33q-45 0 -75.5 -28t-30.5 -79v-352h-76v331q0 62 -24.5 95t-75.5 33q-45 0 -75.5 -28t-30.5 -79v-352h-76z" />
    <glyph glyph-name="n" unicode="n" horiz-adv-x="513" 
d="M76 0v516h76v-84h10q15 48 46.5 72t85.5 24q69 0 108.5 -47t39.5 -145v-336h-76v331q0 62 -25.5 95t-78.5 33q-46 0 -78 -28t-32 -79v-352h-76z" />
    <glyph glyph-name="o" unicode="o" horiz-adv-x="504" 
d="M252 -12q-45 0 -84 15t-67 48t-44 84t-16 123t16 123t44 84t67 48t84 15t84 -15t67 -48t44 -84t16 -123t-16 -123t-44 -84t-67 -48t-84 -15zM252 56q62 0 95.5 37t33.5 113v104q0 76 -33.5 113t-95.5 37t-95.5 -37t-33.5 -113v-104q0 -76 33.5 -113t95.5 -37z" />
    <glyph glyph-name="p" unicode="p" horiz-adv-x="524" 
d="M76 516h76v-84h10q15 51 48.5 73.5t81.5 22.5q46 0 81 -19t59 -54t36 -85t12 -112t-12 -112t-36 -85t-59 -54t-81 -19q-48 0 -81.5 22.5t-48.5 73.5h-10v-284h-76v716zM269 56q63 0 96 39.5t33 110.5v104q0 71 -33 110.5t-96 39.5q-24 0 -45.5 -7t-37 -20t-25 -31
t-9.5 -40v-208q0 -22 9.5 -40t25 -31t37 -20t45.5 -7z" />
    <glyph glyph-name="q" unicode="q" horiz-adv-x="524" 
d="M372 84h-10q-15 -51 -48.5 -73.5t-81.5 -22.5q-46 0 -81 19t-59 54t-36 85t-12 112t12 112t36 85t59 54t81 19q48 0 81.5 -22.5t48.5 -73.5h10v84h76v-716h-76v284zM255 56q24 0 45.5 7t37 20t25 31t9.5 40v208q0 22 -9.5 40t-25 31t-37 20t-45.5 7q-63 0 -96 -39.5
t-33 -110.5v-104q0 -71 33 -110.5t96 -39.5z" />
    <glyph glyph-name="r" unicode="r" horiz-adv-x="332" 
d="M76 0v516h76v-96h10q13 45 44.5 70.5t82.5 25.5h28v-77h-50q-54 0 -84.5 -24t-30.5 -72v-343h-76z" />
    <glyph glyph-name="s" unicode="s" horiz-adv-x="439" 
d="M219 -12q-64 0 -109.5 26t-77.5 72l53 44q27 -38 58.5 -58t75.5 -20q45 0 71.5 22.5t26.5 64.5q0 34 -17 55t-63 29l-39 7q-75 14 -111.5 47t-36.5 100q0 39 12 67.5t34 47t52.5 27t66.5 8.5q58 0 97.5 -20.5t68.5 -59.5l-49 -45q-17 24 -45 42.5t-72 18.5q-91 0 -91 -83
q0 -38 19.5 -55.5t63.5 -25.5l39 -7q79 -14 112 -49t33 -95q0 -75 -43.5 -117.5t-128.5 -42.5z" />
    <glyph glyph-name="t" unicode="t" horiz-adv-x="318" 
d="M180 0q-41 0 -59.5 18.5t-18.5 59.5v371h-76v67h45q23 0 30.5 11.5t7.5 34.5v96h69v-142h100v-67h-100v-382h95v-67h-93z" />
    <glyph glyph-name="u" unicode="u" horiz-adv-x="513" 
d="M361 84h-10q-15 -48 -46.5 -72t-85.5 -24q-69 0 -108.5 47t-39.5 145v336h76v-331q0 -62 25.5 -95t78.5 -33q46 0 78 28t32 79v352h76v-516h-76v84z" />
    <glyph glyph-name="v" unicode="v" horiz-adv-x="445" 
d="M178 0l-162 516h76l79 -260l48 -189h10l48 189l79 260h74l-162 -516h-90z" />
    <glyph glyph-name="w" unicode="w" horiz-adv-x="698" 
d="M27 516h74l50 -224l44 -225h10l51 225l52 224h88l52 -224l51 -225h10l44 225l50 224h72l-124 -516h-96l-63 250l-35 189h-10l-37 -189l-63 -250h-96z" />
    <glyph glyph-name="x" unicode="x" horiz-adv-x="459" 
d="M19 0l170 263l-163 253h86l115 -188h10l117 188h83l-162 -250l167 -266h-86l-119 202h-10l-125 -202h-83z" />
    <glyph glyph-name="y" unicode="y" horiz-adv-x="451" 
d="M356 516h74l-204 -648q-6 -20 -13 -33.5t-17.5 -21t-25 -10.5t-36.5 -3h-56v67h79l30 105l-171 544h76l79 -260l48 -189h10l48 189z" />
    <glyph glyph-name="z" unicode="z" horiz-adv-x="421" 
d="M30 0v58l263 391h-255v67h345v-58l-263 -391h271v-67h-361z" />
    <glyph glyph-name="braceleft" unicode="{" horiz-adv-x="310" 
d="M172 -138q-36 0 -50.5 14.5t-14.5 48.5v274q0 33 -24.5 53.5t-62.5 20.5v76q38 0 62.5 20.5t24.5 53.5v274q0 34 14.5 48.5t50.5 14.5h85v-60h-84v-277q0 -20 -8 -39t-22 -34t-33.5 -24t-41.5 -9v-12q22 0 41.5 -9.5t33.5 -24t22 -33.5t8 -39v-277h84v-60h-85z" />
    <glyph glyph-name="bar" unicode="|" horiz-adv-x="288" 
d="M112 -138v898h64v-898h-64z" />
    <glyph glyph-name="braceright" unicode="}" horiz-adv-x="310" 
d="M138 760q36 0 50.5 -14.5t14.5 -48.5v-274q0 -33 24.5 -53.5t62.5 -20.5v-76q-38 0 -62.5 -20.5t-24.5 -53.5v-274q0 -34 -14.5 -48.5t-50.5 -14.5h-85v60h84v277q0 20 8 39t22 34t33 24t42 9v12q-23 0 -42 9.5t-33 24t-22 33.5t-8 39v277h-84v60h85z" />
    <glyph glyph-name="asciitilde" unicode="~" 
d="M377 237q-33 0 -59.5 9.5t-57.5 25.5q-25 13 -52 24.5t-50 11.5t-39.5 -7t-34.5 -24l-33 41q19 26 45 40.5t67 14.5q33 0 59.5 -9.5t57.5 -25.5q25 -13 52 -24.5t50 -11.5t39.5 7t34.5 23l33 -40q-19 -26 -45 -40.5t-67 -14.5z" />
    <glyph glyph-name="uni00A0" unicode="&#xa0;" horiz-adv-x="212" 
 />
    <glyph glyph-name="exclamdown" unicode="&#xa1;" horiz-adv-x="258" 
d="M87 -182v204l23 311h38l23 -311v-204h-84zM129 410q-59 0 -59 51v16q0 51 59 51t59 -51v-16q0 -51 -59 -51z" />
    <glyph glyph-name="cent" unicode="&#xa2;" horiz-adv-x="465" 
d="M210 -114v104q-80 10 -124.5 74t-44.5 194t44.5 193.5t124.5 74.5v104h64v-103q60 -7 97 -39t55 -79l-63 -32q-11 34 -33 55t-58 26v-400q38 5 62.5 27t40.5 60l56 -39q-21 -48 -60 -79t-97 -37v-104h-64zM123 206q0 -129 89 -147v398q-89 -18 -89 -147v-104z" />
    <glyph glyph-name="sterling" unicode="&#xa3;" horiz-adv-x="535" 
d="M73 0v92q36 18 50.5 50.5t14.5 90.5q0 28 -6 54h-80v65h63q-10 32 -18 67t-8 80q0 101 52 156t153 55q71 0 115 -27t73 -77l-59 -43q-21 37 -51 57t-80 20q-60 0 -90.5 -33t-30.5 -115q0 -42 7.5 -75.5t15.5 -64.5h189v-65h-172q2 -12 3.5 -24.5t1.5 -26.5
q0 -63 -26.5 -105t-66.5 -52v-9h343v-70h-393z" />
    <glyph glyph-name="yen" unicode="&#xa5;" horiz-adv-x="546" 
d="M313 145v-145h-80v145h-157v65h157v98h-157v65h119l-164 325h91l147 -310h10l147 310h89l-164 -325h119v-65h-157v-98h157v-65h-157z" />
    <glyph glyph-name="brokenbar" unicode="&#xa6;" horiz-adv-x="288" 
d="M112 406v354h64v-354h-64zM112 -138v354h64v-354h-64z" />
    <glyph glyph-name="section" unicode="&#xa7;" horiz-adv-x="526" 
d="M428 3q0 -79 -49.5 -118.5t-129.5 -39.5q-43 0 -82 12t-70 41l43 54q21 -19 48 -29.5t62 -10.5q49 0 77 21t28 69q0 40 -24.5 61.5t-68.5 36.5l-58 19q-39 13 -65.5 29t-42.5 35.5t-22.5 41.5t-6.5 48q0 47 25.5 85.5t72.5 53.5v10q-30 20 -48.5 51.5t-18.5 79.5
q0 78 49 117.5t129 39.5q43 0 82.5 -12t71.5 -41l-44 -54q-21 20 -48 30t-63 10q-49 0 -76.5 -21t-27.5 -69q0 -40 24 -61.5t69 -36.5l57 -19q80 -27 109.5 -65t29.5 -89q0 -47 -25.5 -85.5t-73.5 -53.5v-9q32 -21 49.5 -53t17.5 -78zM386 263q0 43 -21.5 69.5t-81.5 44.5
l-57 17q-13 4 -29 11q-26 -21 -41.5 -49t-15.5 -64q0 -22 5 -39t16.5 -30.5t31.5 -24.5t50 -20l56 -17q13 -4 29 -11q26 22 42 49.5t16 63.5z" />
    <glyph glyph-name="dieresis" unicode="&#xa8;" 
d="M184 620q-50 0 -50 40v18q0 40 50 40t50 -40v-18q0 -40 -50 -40zM356 620q-50 0 -50 40v18q0 40 50 40t50 -40v-18q0 -40 -50 -40z" />
    <glyph glyph-name="copyright" unicode="&#xa9;" horiz-adv-x="700" 
d="M350 -12q-65 0 -121 23t-97 69t-65 113t-24 156q0 88 24 155.5t65 113.5t97 69t121 23q64 0 120.5 -23t97.5 -69t65 -113.5t24 -155.5q0 -89 -24 -156t-65 -113t-97.5 -69t-120.5 -23zM350 45q53 0 97 19.5t76 54.5t49.5 83.5t17.5 106.5v80q0 58 -17.5 106.5t-49.5 83.5
t-76 54.5t-97 19.5t-97 -19.5t-76 -54.5t-49.5 -83.5t-17.5 -106.5v-80q0 -58 17.5 -106.5t49.5 -83.5t76 -54.5t97 -19.5zM357 156q-79 0 -117 49.5t-38 143.5t38 143.5t117 49.5q49 0 78 -22.5t45 -59.5l-53 -31q-11 25 -26 39t-44 14q-40 0 -60.5 -25t-20.5 -70v-76
q0 -45 20.5 -70t60.5 -25q31 0 47.5 15t29.5 41l52 -33q-16 -37 -47 -60t-82 -23z" />
    <glyph glyph-name="ordfeminine" unicode="&#xaa;" horiz-adv-x="362" 
d="M226 413q-10 -29 -34 -46t-59 -17q-48 0 -72.5 26.5t-24.5 71.5q0 55 34.5 79.5t100.5 24.5h63v34q0 41 -16 57.5t-51 16.5q-32 0 -52 -13.5t-29 -36.5l-39 33q13 25 42.5 46t81.5 21q59 0 90.5 -30.5t31.5 -90.5v-176h34v-55h-37q-27 0 -41.5 13t-14.5 42h-8zM170 507
q-36 0 -55.5 -11t-19.5 -32v-19q0 -45 54 -45q35 0 60 18t25 48v41h-64z" />
    <glyph glyph-name="guillemotleft" unicode="&#xab;" horiz-adv-x="463" 
d="M205 98l-172 151v72l172 151l26 -53l-121 -130v-8l121 -130zM394 98l-172 151v72l172 151l26 -53l-121 -130v-8l121 -130z" />
    <glyph glyph-name="logicalnot" unicode="&#xac;" 
d="M408 78v195h-348v64h420v-259h-72z" />
    <glyph glyph-name="uni00AD" unicode="&#xad;" horiz-adv-x="360" 
d="M60 263v82h240v-82h-240z" />
    <glyph glyph-name="registered" unicode="&#xae;" horiz-adv-x="428" 
d="M214 298q-40 0 -73.5 14t-58 40.5t-38 65t-13.5 86.5t13.5 86.5t38 65t58 40.5t73.5 14t73.5 -14t58 -40.5t38 -65t13.5 -86.5t-13.5 -86.5t-38 -65t-58 -40.5t-73.5 -14zM214 335q33 0 59 11.5t43.5 31.5t26.5 46.5t9 56.5v46q0 30 -9 56.5t-26.5 46.5t-43.5 31.5
t-59 11.5t-59 -11.5t-43.5 -31.5t-26.5 -46.5t-9 -56.5v-46q0 -30 9 -56.5t26.5 -46.5t43.5 -31.5t59 -11.5zM180 400h-38v208h88q57 0 57 -63q0 -50 -34 -61l43 -84h-42l-39 80h-35v-80zM228 512q19 0 19 21v22q0 21 -19 21h-48v-64h48z" />
    <glyph glyph-name="macron" unicode="&#xaf;" 
d="M143 703h254v-64h-254v64z" />
    <glyph glyph-name="degree" unicode="&#xb0;" horiz-adv-x="422" 
d="M212 384q-33 0 -62 11.5t-50.5 32.5t-33.5 51t-12 68t12 68t33.5 51t50.5 32.5t62 11.5t62 -11.5t50.5 -32.5t33.5 -51t12 -68t-12 -68t-33.5 -51t-50.5 -32.5t-62 -11.5zM212 443q41 0 66.5 27.5t25.5 76.5t-25.5 76.5t-66.5 27.5t-66.5 -27.5t-25.5 -76.5t25.5 -76.5
t66.5 -27.5z" />
    <glyph glyph-name="plusminus" unicode="&#xb1;" 
d="M234 169v182h-174v64h174v182h72v-182h174v-64h-174v-182h-72zM60 0v64h420v-64h-420z" />
    <glyph glyph-name="twosuperior" unicode="&#xb2;" horiz-adv-x="320" 
d="M286 329h-246v54l115 105q26 24 41.5 45.5t15.5 47.5v23q0 22 -13.5 36t-44.5 14q-34 0 -48 -17t-21 -42l-51 20q5 17 14 33t24 28.5t36 20t50 7.5q61 0 88.5 -29.5t27.5 -79.5q0 -45 -24.5 -77t-62.5 -65l-87 -76h186v-48z" />
    <glyph glyph-name="threesuperior" unicode="&#xb3;" horiz-adv-x="320" 
d="M146 544q34 0 50 13.5t16 33.5v20q0 22 -15.5 33.5t-41.5 11.5q-31 0 -46 -12t-27 -33l-40 32q8 12 17.5 23.5t23 19.5t31.5 13t43 5q51 0 84 -22t33 -73q0 -39 -21 -58.5t-50 -26.5v-6q32 -4 54.5 -24.5t22.5 -62.5q0 -55 -34.5 -81.5t-92.5 -26.5q-28 0 -47.5 5.5
t-34 14.5t-24.5 21t-19 24l44 33q13 -22 28 -36t51 -14q32 0 49.5 14.5t17.5 39.5v23q0 25 -18 36.5t-51 11.5h-38v48h35z" />
    <glyph glyph-name="acute" unicode="&#xb4;" 
d="M277 585l-49 25l77 169l69 -36z" />
    <glyph glyph-name="mu" unicode="&#xb5;" horiz-adv-x="518" 
d="M76 -200v716h76v-331q0 -62 25.5 -95t78.5 -33q46 0 78 28t32 79v352h76v-516h-76v84h-10q-15 -47 -41.5 -71.5t-74.5 -24.5q-29 0 -55 14t-35 40h-8l9 -83v-159h-75z" />
    <glyph glyph-name="paragraph" unicode="&#xb6;" horiz-adv-x="588" 
d="M221 302q-40 0 -72 14.5t-55 40.5t-35.5 62.5t-12.5 80.5t12.5 80.5t35.5 62.5t55 40.5t72 14.5h295v-65h-60v-782h-70v782h-95v-782h-70v451z" />
    <glyph glyph-name="periodcentered" unicode="&#xb7;" horiz-adv-x="296" 
d="M148 245q-59 0 -59 51v16q0 51 59 51t59 -51v-16q0 -51 -59 -51z" />
    <glyph glyph-name="cedilla" unicode="&#xb8;" 
d="M280 -207q-38 0 -59.5 13.5t-32.5 27.5l35 39q10 -11 23.5 -19.5t33.5 -8.5q42 0 42 34t-42 34h-49l18 97h46l-15 -80h8q5 7 13 11.5t23 4.5q58 0 58 -70q0 -21 -8.5 -36.5t-22.5 -26t-32.5 -15.5t-38.5 -5z" />
    <glyph glyph-name="onesuperior" unicode="&#xb9;" horiz-adv-x="320" 
d="M49 329v48h96v269l-92 -55l-24 40l113 67h63v-321h86v-48h-242z" />
    <glyph glyph-name="ordmasculine" unicode="&#xba;" horiz-adv-x="360" 
d="M180 350q-66 0 -103.5 43t-37.5 137t37.5 137t103.5 43t103.5 -43t37.5 -137t-37.5 -137t-103.5 -43zM180 400q77 0 77 89v82q0 89 -77 89t-77 -89v-82q0 -89 77 -89z" />
    <glyph glyph-name="guillemotright" unicode="&#xbb;" horiz-adv-x="463" 
d="M69 472l172 -151v-72l-172 -151l-26 53l121 130v8l-121 130zM258 472l172 -151v-72l-172 -151l-26 53l121 130v8l-121 130z" />
    <glyph glyph-name="onequarter" unicode="&#xbc;" horiz-adv-x="740" 
d="M49 329v48h96v269l-92 -55l-24 40l113 67h63v-321h86v-48h-242zM393 434l166 264h62l-166 -264h-62zM119 0l160 254h62l-160 -254h-62zM612 0v72h-170v50l142 247h84v-251h50v-46h-50v-72h-56zM612 316h-6l-113 -198h119v198z" />
    <glyph glyph-name="onehalf" unicode="&#xbd;" horiz-adv-x="740" 
d="M49 329v48h96v269l-92 -55l-24 40l113 67h63v-321h86v-48h-242zM393 434l166 264h62l-166 -264h-62zM119 0l160 254h62l-160 -254h-62zM706 0h-246v54l115 105q26 24 41.5 45.5t15.5 47.5v23q0 22 -13.5 36t-44.5 14q-34 0 -48 -17t-21 -42l-51 20q5 17 14 33t24 28.5
t36 20t50 7.5q61 0 88.5 -29.5t27.5 -79.5q0 -45 -24.5 -77t-62.5 -65l-87 -76h186v-48z" />
    <glyph glyph-name="threequarters" unicode="&#xbe;" horiz-adv-x="740" 
d="M146 544q34 0 50 13.5t16 33.5v20q0 22 -15.5 33.5t-41.5 11.5q-31 0 -46 -12t-27 -33l-40 32q8 12 17.5 23.5t23 19.5t31.5 13t43 5q51 0 84 -22t33 -73q0 -39 -21 -58.5t-50 -26.5v-6q32 -4 54.5 -24.5t22.5 -62.5q0 -55 -34.5 -81.5t-92.5 -26.5q-28 0 -47.5 5.5
t-34 14.5t-24.5 21t-19 24l44 33q13 -22 28 -36t51 -14q32 0 49.5 14.5t17.5 39.5v23q0 25 -18 36.5t-51 11.5h-38v48h35zM393 434l166 264h62l-166 -264h-62zM119 0l160 254h62l-160 -254h-62zM612 0v72h-170v50l142 247h84v-251h50v-46h-50v-72h-56zM612 316h-6l-113 -198
h119v198z" />
    <glyph glyph-name="questiondown" unicode="&#xbf;" horiz-adv-x="422" 
d="M215 -195q-84 0 -133 51t-49 137q0 48 14.5 84t38 61t53 40t59.5 21v110h73v-165q-74 -4 -115.5 -40.5t-41.5 -100.5v-14q0 -52 28.5 -83t75.5 -31q51 0 81.5 34t41.5 85l69 -26q-8 -33 -23.5 -62.5t-39.5 -52t-56.5 -35.5t-75.5 -13zM236 410q-59 0 -59 51v16
q0 51 59 51t59 -51v-16q0 -51 -59 -51z" />
    <glyph glyph-name="Agrave" unicode="&#xc0;" horiz-adv-x="579" 
d="M476 0l-62 209h-251l-62 -209h-80l218 698h100l219 -698h-82zM315 540l-22 87h-10l-22 -87l-79 -265h214zM187 913l69 36l77 -169l-49 -25z" />
    <glyph glyph-name="Aacute" unicode="&#xc1;" horiz-adv-x="579" 
d="M476 0l-62 209h-251l-62 -209h-80l218 698h100l219 -698h-82zM315 540l-22 87h-10l-22 -87l-79 -265h214zM298 755l-49 25l77 169l69 -36z" />
    <glyph glyph-name="Acircumflex" unicode="&#xc2;" horiz-adv-x="579" 
d="M476 0l-62 209h-251l-62 -209h-80l218 698h100l219 -698h-82zM315 540l-22 87h-10l-22 -87l-79 -265h214zM337 935l101 -144l-41 -30l-106 118l-106 -118l-41 30l101 144h92z" />
    <glyph glyph-name="Atilde" unicode="&#xc3;" horiz-adv-x="579" 
d="M476 0l-62 209h-251l-62 -209h-80l218 698h100l219 -698h-82zM315 540l-22 87h-10l-22 -87l-79 -265h214zM358 784q-17 0 -33 6t-41 20q-23 14 -37 19.5t-25 5.5q-15 0 -27 -7.5t-26 -20.5l-30 38q32 52 85 52q17 0 33 -6t41 -20q23 -14 37 -19.5t25 -5.5q15 0 27 7.5
t26 20.5l30 -38q-32 -52 -85 -52z" />
    <glyph glyph-name="Adieresis" unicode="&#xc4;" horiz-adv-x="579" 
d="M476 0l-62 209h-251l-62 -209h-80l218 698h100l219 -698h-82zM315 540l-22 87h-10l-22 -87l-79 -265h214zM205 792q-50 0 -50 40v18q0 40 50 40t50 -40v-18q0 -40 -50 -40zM377 792q-50 0 -50 40v18q0 40 50 40t50 -40v-18q0 -40 -50 -40z" />
    <glyph glyph-name="Aring" unicode="&#xc5;" horiz-adv-x="579" 
d="M476 0l-62 209h-251l-62 -209h-80l218 698h100l219 -698h-82zM315 540l-22 87h-10l-22 -87l-79 -265h214zM291 746q-51 0 -80.5 32t-29.5 83t29.5 83t80.5 32t80.5 -32t29.5 -83t-29.5 -83t-80.5 -32zM291 793q25 0 39.5 13t14.5 38v34q0 25 -14.5 38t-39.5 13t-39.5 -13
t-14.5 -38v-34q0 -25 14.5 -38t39.5 -13z" />
    <glyph glyph-name="AE" unicode="&#xc6;" horiz-adv-x="820" 
d="M377 208h-200l-92 -208h-82l320 698h440v-70h-306v-240h287v-70h-287v-248h306v-70h-386v208zM364 628l-157 -354h170v354h-13z" />
    <glyph glyph-name="Ccedilla" unicode="&#xc7;" horiz-adv-x="561" 
d="M305 639q-80 0 -123.5 -57.5t-43.5 -154.5v-156q0 -97 43.5 -154.5t123.5 -57.5q68 0 105 31.5t56 91.5l64 -40q-29 -71 -78.5 -109.5t-126.5 -43.5l-11 -59h8q5 7 13 11.5t23 4.5q58 0 58 -70q0 -21 -8.5 -36.5t-22.5 -26t-32.5 -15.5t-38.5 -5q-38 0 -59.5 13.5
t-32.5 27.5l35 39q10 -11 23.5 -19.5t33.5 -8.5q42 0 42 34t-42 34h-49l14 76q-107 9 -167 96.5t-60 263.5q0 93 17.5 161.5t50 112.5t79.5 65.5t106 21.5q86 0 138 -36.5t82 -111.5l-64 -39q-19 57 -54.5 86.5t-101.5 29.5z" />
    <glyph glyph-name="Egrave" unicode="&#xc8;" horiz-adv-x="526" 
d="M83 0v698h386v-70h-306v-240h287v-70h-287v-248h306v-70h-386zM170 913l69 36l77 -169l-49 -25z" />
    <glyph glyph-name="Eacute" unicode="&#xc9;" horiz-adv-x="526" 
d="M83 0v698h386v-70h-306v-240h287v-70h-287v-248h306v-70h-386zM281 755l-49 25l77 169l69 -36z" />
    <glyph glyph-name="Ecircumflex" unicode="&#xca;" horiz-adv-x="526" 
d="M83 0v698h386v-70h-306v-240h287v-70h-287v-248h306v-70h-386zM320 935l101 -144l-41 -30l-106 118l-106 -118l-41 30l101 144h92z" />
    <glyph glyph-name="Edieresis" unicode="&#xcb;" horiz-adv-x="526" 
d="M83 0v698h386v-70h-306v-240h287v-70h-287v-248h306v-70h-386zM188 792q-50 0 -50 40v18q0 40 50 40t50 -40v-18q0 -40 -50 -40zM360 792q-50 0 -50 40v18q0 40 50 40t50 -40v-18q0 -40 -50 -40z" />
    <glyph glyph-name="Igrave" unicode="&#xcc;" horiz-adv-x="362" 
d="M53 0v66h88v566h-88v66h256v-66h-88v-566h88v-66h-256zM78 913l69 36l77 -169l-49 -25z" />
    <glyph glyph-name="Iacute" unicode="&#xcd;" horiz-adv-x="362" 
d="M53 0v66h88v566h-88v66h256v-66h-88v-566h88v-66h-256zM189 755l-49 25l77 169l69 -36z" />
    <glyph glyph-name="Icircumflex" unicode="&#xce;" horiz-adv-x="362" 
d="M53 0v66h88v566h-88v66h256v-66h-88v-566h88v-66h-256zM228 935l101 -144l-41 -30l-106 118l-106 -118l-41 30l101 144h92z" />
    <glyph glyph-name="Idieresis" unicode="&#xcf;" horiz-adv-x="362" 
d="M53 0v66h88v566h-88v66h256v-66h-88v-566h88v-66h-256zM96 792q-50 0 -50 40v18q0 40 50 40t50 -40v-18q0 -40 -50 -40zM268 792q-50 0 -50 40v18q0 40 50 40t50 -40v-18q0 -40 -50 -40z" />
    <glyph glyph-name="Eth" unicode="&#xd0;" horiz-adv-x="610" 
d="M86 336h-64v60h64v302h219q121 0 187 -83.5t66 -265.5t-66 -265.5t-187 -83.5h-219v336zM305 70q75 0 121 52t46 149v156q0 97 -46 149t-121 52h-139v-232h124v-60h-124v-266h139z" />
    <glyph glyph-name="Ntilde" unicode="&#xd1;" horiz-adv-x="637" 
d="M225 453l-61 144h-10l7 -144v-453h-78v698h98l232 -453l61 -144h10l-7 144v453h78v-698h-98zM385 784q-17 0 -33 6t-41 20q-23 14 -37 19.5t-25 5.5q-15 0 -27 -7.5t-26 -20.5l-30 38q32 52 85 52q17 0 33 -6t41 -20q23 -14 37 -19.5t25 -5.5q15 0 27 7.5t26 20.5l30 -38
q-32 -52 -85 -52z" />
    <glyph glyph-name="Ograve" unicode="&#xd2;" horiz-adv-x="638" 
d="M319 -12q-127 0 -197 87t-70 274t70 274t197 87t197 -87t70 -274t-70 -274t-197 -87zM319 59q87 0 134 57.5t47 154.5v156q0 97 -47 154.5t-134 57.5t-134 -57.5t-47 -154.5v-156q0 -97 47 -154.5t134 -57.5zM215 913l69 36l77 -169l-49 -25z" />
    <glyph glyph-name="Oacute" unicode="&#xd3;" horiz-adv-x="638" 
d="M319 -12q-127 0 -197 87t-70 274t70 274t197 87t197 -87t70 -274t-70 -274t-197 -87zM319 59q87 0 134 57.5t47 154.5v156q0 97 -47 154.5t-134 57.5t-134 -57.5t-47 -154.5v-156q0 -97 47 -154.5t134 -57.5zM326 755l-49 25l77 169l69 -36z" />
    <glyph glyph-name="Ocircumflex" unicode="&#xd4;" horiz-adv-x="638" 
d="M319 -12q-127 0 -197 87t-70 274t70 274t197 87t197 -87t70 -274t-70 -274t-197 -87zM319 59q87 0 134 57.5t47 154.5v156q0 97 -47 154.5t-134 57.5t-134 -57.5t-47 -154.5v-156q0 -97 47 -154.5t134 -57.5zM365 935l101 -144l-41 -30l-106 118l-106 -118l-41 30
l101 144h92z" />
    <glyph glyph-name="Otilde" unicode="&#xd5;" horiz-adv-x="638" 
d="M319 -12q-127 0 -197 87t-70 274t70 274t197 87t197 -87t70 -274t-70 -274t-197 -87zM319 59q87 0 134 57.5t47 154.5v156q0 97 -47 154.5t-134 57.5t-134 -57.5t-47 -154.5v-156q0 -97 47 -154.5t134 -57.5zM386 784q-17 0 -33 6t-41 20q-23 14 -37 19.5t-25 5.5
q-15 0 -27 -7.5t-26 -20.5l-30 38q32 52 85 52q17 0 33 -6t41 -20q23 -14 37 -19.5t25 -5.5q15 0 27 7.5t26 20.5l30 -38q-32 -52 -85 -52z" />
    <glyph glyph-name="Odieresis" unicode="&#xd6;" horiz-adv-x="638" 
d="M319 -12q-127 0 -197 87t-70 274t70 274t197 87t197 -87t70 -274t-70 -274t-197 -87zM319 59q87 0 134 57.5t47 154.5v156q0 97 -47 154.5t-134 57.5t-134 -57.5t-47 -154.5v-156q0 -97 47 -154.5t134 -57.5zM233 792q-50 0 -50 40v18q0 40 50 40t50 -40v-18
q0 -40 -50 -40zM405 792q-50 0 -50 40v18q0 40 50 40t50 -40v-18q0 -40 -50 -40z" />
    <glyph glyph-name="multiply" unicode="&#xd7;" 
d="M270 260l-145 -145l-45 45l145 145l-145 145l45 45l145 -145l145 145l45 -45l-145 -145l145 -145l-45 -45z" />
    <glyph glyph-name="Oslash" unicode="&#xd8;" horiz-adv-x="638" 
d="M319 -12q-95 0 -158 48l-50 -80l-53 36l57 92q-31 45 -47 110.5t-16 154.5q0 187 70 274t197 87q95 0 158 -48l50 80l53 -36l-57 -92q31 -45 47 -110.5t16 -154.5q0 -187 -70 -274t-197 -87zM163 151l156 259l119 186q-46 43 -119 43q-87 0 -134 -57.5t-47 -154.5v-186
l14 -90h11zM200 102q46 -43 119 -43q87 0 134 57.5t47 154.5v186l-14 90h-11l-156 -259z" />
    <glyph glyph-name="Ugrave" unicode="&#xd9;" horiz-adv-x="611" 
d="M158 698v-452q0 -47 7.5 -82t24.5 -58.5t45.5 -35t69.5 -11.5q82 0 114.5 46.5t32.5 140.5v452h80v-436q0 -70 -12 -121.5t-38.5 -85.5t-70 -50.5t-106.5 -16.5t-106.5 16.5t-70 50.5t-38.5 85.5t-12 121.5v436h80zM200 913l69 36l77 -169l-49 -25z" />
    <glyph glyph-name="Uacute" unicode="&#xda;" horiz-adv-x="611" 
d="M158 698v-452q0 -47 7.5 -82t24.5 -58.5t45.5 -35t69.5 -11.5q82 0 114.5 46.5t32.5 140.5v452h80v-436q0 -70 -12 -121.5t-38.5 -85.5t-70 -50.5t-106.5 -16.5t-106.5 16.5t-70 50.5t-38.5 85.5t-12 121.5v436h80zM311 755l-49 25l77 169l69 -36z" />
    <glyph glyph-name="Ucircumflex" unicode="&#xdb;" horiz-adv-x="611" 
d="M158 698v-452q0 -47 7.5 -82t24.5 -58.5t45.5 -35t69.5 -11.5q82 0 114.5 46.5t32.5 140.5v452h80v-436q0 -70 -12 -121.5t-38.5 -85.5t-70 -50.5t-106.5 -16.5t-106.5 16.5t-70 50.5t-38.5 85.5t-12 121.5v436h80zM350 935l101 -144l-41 -30l-106 118l-106 -118l-41 30
l101 144h92z" />
    <glyph glyph-name="Udieresis" unicode="&#xdc;" horiz-adv-x="611" 
d="M158 698v-452q0 -47 7.5 -82t24.5 -58.5t45.5 -35t69.5 -11.5q82 0 114.5 46.5t32.5 140.5v452h80v-436q0 -70 -12 -121.5t-38.5 -85.5t-70 -50.5t-106.5 -16.5t-106.5 16.5t-70 50.5t-38.5 85.5t-12 121.5v436h80zM218 792q-50 0 -50 40v18q0 40 50 40t50 -40v-18
q0 -40 -50 -40zM390 792q-50 0 -50 40v18q0 40 50 40t50 -40v-18q0 -40 -50 -40z" />
    <glyph glyph-name="Yacute" unicode="&#xdd;" horiz-adv-x="534" 
d="M227 0v276l-216 422h91l161 -332h10l161 332h89l-216 -422v-276h-80zM277 755l-49 25l77 169l69 -36z" />
    <glyph glyph-name="Thorn" unicode="&#xde;" horiz-adv-x="548" 
d="M83 0v698h80v-144h177q173 0 173 -199t-173 -199h-177v-156h-80zM163 226h175q89 0 89 96v66q0 96 -89 96h-175v-258z" />
    <glyph glyph-name="germandbls" unicode="&#xdf;" horiz-adv-x="579" 
d="M557 147q0 -75 -42 -117t-123 -42q-57 0 -95.5 22t-66.5 61l51 45q23 -32 50.5 -47.5t65.5 -15.5q46 0 66.5 22.5t20.5 63.5q0 32 -14.5 51.5t-49.5 30.5l-26 8q-69 21 -101 53t-32 95q0 69 41.5 106.5t118.5 38.5v13q0 81 -26.5 116.5t-95.5 35.5t-95.5 -35.5
t-26.5 -116.5v-535h-76v449h-75v67h75v23q0 101 48.5 157t148.5 56t148.5 -56t48.5 -157v-79h-74q-40 0 -63.5 -18.5t-23.5 -60.5q0 -35 16.5 -52.5t57.5 -30.5l25 -8q66 -21 95 -52.5t29 -90.5z" />
    <glyph glyph-name="agrave" unicode="&#xe0;" horiz-adv-x="483" 
d="M402 0q-74 0 -74 74v10h-10q-13 -47 -47.5 -71.5t-82.5 -24.5q-75 0 -112 38t-37 112q0 72 47.5 114t148.5 42h93v57q0 57 -25.5 84t-80.5 27q-45 0 -72.5 -19.5t-47.5 -56.5l-45 42q20 42 64 70.5t104 28.5q88 0 133.5 -42.5t45.5 -125.5v-292h52v-67h-54zM207 54
q26 0 48.5 9t38.5 23.5t25 33t9 38.5v78h-95q-60 0 -87.5 -20t-27.5 -58v-28q0 -39 24 -57.5t65 -18.5zM125 743l69 36l77 -169l-49 -25z" />
    <glyph glyph-name="aacute" unicode="&#xe1;" horiz-adv-x="483" 
d="M402 0q-74 0 -74 74v10h-10q-13 -47 -47.5 -71.5t-82.5 -24.5q-75 0 -112 38t-37 112q0 72 47.5 114t148.5 42h93v57q0 57 -25.5 84t-80.5 27q-45 0 -72.5 -19.5t-47.5 -56.5l-45 42q20 42 64 70.5t104 28.5q88 0 133.5 -42.5t45.5 -125.5v-292h52v-67h-54zM207 54
q26 0 48.5 9t38.5 23.5t25 33t9 38.5v78h-95q-60 0 -87.5 -20t-27.5 -58v-28q0 -39 24 -57.5t65 -18.5zM236 585l-49 25l77 169l69 -36z" />
    <glyph glyph-name="acircumflex" unicode="&#xe2;" horiz-adv-x="483" 
d="M402 0q-74 0 -74 74v10h-10q-13 -47 -47.5 -71.5t-82.5 -24.5q-75 0 -112 38t-37 112q0 72 47.5 114t148.5 42h93v57q0 57 -25.5 84t-80.5 27q-45 0 -72.5 -19.5t-47.5 -56.5l-45 42q20 42 64 70.5t104 28.5q88 0 133.5 -42.5t45.5 -125.5v-292h52v-67h-54zM207 54
q26 0 48.5 9t38.5 23.5t25 33t9 38.5v78h-95q-60 0 -87.5 -20t-27.5 -58v-28q0 -39 24 -57.5t65 -18.5zM275 765l101 -144l-41 -30l-106 118l-106 -118l-41 30l101 144h92z" />
    <glyph glyph-name="atilde" unicode="&#xe3;" horiz-adv-x="483" 
d="M402 0q-74 0 -74 74v10h-10q-13 -47 -47.5 -71.5t-82.5 -24.5q-75 0 -112 38t-37 112q0 72 47.5 114t148.5 42h93v57q0 57 -25.5 84t-80.5 27q-45 0 -72.5 -19.5t-47.5 -56.5l-45 42q20 42 64 70.5t104 28.5q88 0 133.5 -42.5t45.5 -125.5v-292h52v-67h-54zM207 54
q26 0 48.5 9t38.5 23.5t25 33t9 38.5v78h-95q-60 0 -87.5 -20t-27.5 -58v-28q0 -39 24 -57.5t65 -18.5zM296 613q-17 0 -33 6t-41 20q-23 14 -37 19.5t-25 5.5q-15 0 -27 -7.5t-26 -20.5l-30 38q32 52 85 52q17 0 33 -6t41 -20q23 -14 37 -19.5t25 -5.5q15 0 27 7.5t26 20.5
l30 -38q-32 -52 -85 -52z" />
    <glyph glyph-name="adieresis" unicode="&#xe4;" horiz-adv-x="483" 
d="M402 0q-74 0 -74 74v10h-10q-13 -47 -47.5 -71.5t-82.5 -24.5q-75 0 -112 38t-37 112q0 72 47.5 114t148.5 42h93v57q0 57 -25.5 84t-80.5 27q-45 0 -72.5 -19.5t-47.5 -56.5l-45 42q20 42 64 70.5t104 28.5q88 0 133.5 -42.5t45.5 -125.5v-292h52v-67h-54zM207 54
q26 0 48.5 9t38.5 23.5t25 33t9 38.5v78h-95q-60 0 -87.5 -20t-27.5 -58v-28q0 -39 24 -57.5t65 -18.5zM143 620q-50 0 -50 40v18q0 40 50 40t50 -40v-18q0 -40 -50 -40zM315 620q-50 0 -50 40v18q0 40 50 40t50 -40v-18q0 -40 -50 -40z" />
    <glyph glyph-name="aring" unicode="&#xe5;" horiz-adv-x="483" 
d="M402 0q-74 0 -74 74v10h-10q-13 -47 -47.5 -71.5t-82.5 -24.5q-75 0 -112 38t-37 112q0 72 47.5 114t148.5 42h93v57q0 57 -25.5 84t-80.5 27q-45 0 -72.5 -19.5t-47.5 -56.5l-45 42q20 42 64 70.5t104 28.5q88 0 133.5 -42.5t45.5 -125.5v-292h52v-67h-54zM207 54
q26 0 48.5 9t38.5 23.5t25 33t9 38.5v78h-95q-60 0 -87.5 -20t-27.5 -58v-28q0 -39 24 -57.5t65 -18.5zM229 576q-51 0 -80.5 32t-29.5 83t29.5 83t80.5 32t80.5 -32t29.5 -83t-29.5 -83t-80.5 -32zM229 623q25 0 39.5 13t14.5 38v34q0 25 -14.5 38t-39.5 13t-39.5 -13
t-14.5 -38v-34q0 -25 14.5 -38t39.5 -13z" />
    <glyph glyph-name="ae" unicode="&#xe6;" horiz-adv-x="782" 
d="M233 238q-60 0 -87.5 -21t-27.5 -59v-28q0 -39 24 -57.5t65 -18.5q26 0 49 9t40 23.5t27 33t10 38.5v80h-100zM659 296v14q0 154 -120 154q-62 0 -96 -39t-34 -115v-14h250zM539 55q52 0 85 22.5t52 67.5l52 -38q-24 -53 -70.5 -86t-118.5 -33q-30 0 -57 9t-48.5 24.5
t-36.5 37t-21 47.5h-10q-6 -26 -22 -47.5t-39 -37t-53 -24.5t-64 -9q-75 0 -112 38t-37 112q0 73 47.5 115.5t148.5 42.5h98v52q0 114 -111 114q-45 0 -72.5 -19.5t-47.5 -56.5l-45 42q20 42 64 70.5t104 28.5t98 -31.5t47 -85.5h10q6 25 20.5 47t35.5 37.5t47.5 24.5
t55.5 9q45 0 82.5 -15t63.5 -48t40.5 -84.5t14.5 -123.5v-19h-331v-32q0 -76 34.5 -113.5t95.5 -37.5z" />
    <glyph glyph-name="ccedilla" unicode="&#xe7;" horiz-adv-x="454" 
d="M246 528q73 0 116.5 -33.5t63.5 -85.5l-63 -32q-13 40 -41 61.5t-76 21.5q-63 0 -93 -37t-30 -113v-104q0 -76 30 -113t93 -37q50 0 80.5 22t48.5 67l56 -39q-21 -49 -61.5 -80.5t-100.5 -36.5l-11 -59h8q5 7 13 11.5t23 4.5q58 0 58 -70q0 -21 -8.5 -36.5t-22.5 -26
t-32.5 -15.5t-38.5 -5q-38 0 -59.5 13.5t-32.5 27.5l35 39q10 -11 23.5 -19.5t33.5 -8.5q42 0 42 34t-42 34h-49l14 76q-86 7 -134 70.5t-48 198.5q0 144 54.5 207t150.5 63z" />
    <glyph glyph-name="egrave" unicode="&#xe8;" horiz-adv-x="495" 
d="M252 -12q-45 0 -84 15t-67 48t-44 84t-16 123t16 123t44 84t67 48t84 15t82.5 -15t63.5 -48t40.5 -84t14.5 -123v-19h-331v-33q0 -76 34.5 -113.5t95.5 -37.5q52 0 85 22.5t52 67.5l52 -38q-24 -53 -70.5 -86t-118.5 -33zM252 464q-62 0 -96 -39t-34 -115v-13h250v13
q0 154 -120 154zM149 743l69 36l77 -169l-49 -25z" />
    <glyph glyph-name="eacute" unicode="&#xe9;" horiz-adv-x="495" 
d="M252 -12q-45 0 -84 15t-67 48t-44 84t-16 123t16 123t44 84t67 48t84 15t82.5 -15t63.5 -48t40.5 -84t14.5 -123v-19h-331v-33q0 -76 34.5 -113.5t95.5 -37.5q52 0 85 22.5t52 67.5l52 -38q-24 -53 -70.5 -86t-118.5 -33zM252 464q-62 0 -96 -39t-34 -115v-13h250v13
q0 154 -120 154zM260 585l-49 25l77 169l69 -36z" />
    <glyph glyph-name="ecircumflex" unicode="&#xea;" horiz-adv-x="495" 
d="M252 -12q-45 0 -84 15t-67 48t-44 84t-16 123t16 123t44 84t67 48t84 15t82.5 -15t63.5 -48t40.5 -84t14.5 -123v-19h-331v-33q0 -76 34.5 -113.5t95.5 -37.5q52 0 85 22.5t52 67.5l52 -38q-24 -53 -70.5 -86t-118.5 -33zM252 464q-62 0 -96 -39t-34 -115v-13h250v13
q0 154 -120 154zM299 765l101 -144l-41 -30l-106 118l-106 -118l-41 30l101 144h92z" />
    <glyph glyph-name="edieresis" unicode="&#xeb;" horiz-adv-x="495" 
d="M252 -12q-45 0 -84 15t-67 48t-44 84t-16 123t16 123t44 84t67 48t84 15t82.5 -15t63.5 -48t40.5 -84t14.5 -123v-19h-331v-33q0 -76 34.5 -113.5t95.5 -37.5q52 0 85 22.5t52 67.5l52 -38q-24 -53 -70.5 -86t-118.5 -33zM252 464q-62 0 -96 -39t-34 -115v-13h250v13
q0 154 -120 154zM167 620q-50 0 -50 40v18q0 40 50 40t50 -40v-18q0 -40 -50 -40zM339 620q-50 0 -50 40v18q0 40 50 40t50 -40v-18q0 -40 -50 -40z" />
    <glyph glyph-name="igrave" unicode="&#xec;" horiz-adv-x="228" 
d="M76 0v516h76v-516h-76zM11 743l69 36l77 -169l-49 -25z" />
    <glyph glyph-name="iacute" unicode="&#xed;" horiz-adv-x="228" 
d="M76 0v516h76v-516h-76zM122 585l-49 25l77 169l69 -36z" />
    <glyph glyph-name="icircumflex" unicode="&#xee;" horiz-adv-x="228" 
d="M76 0v516h76v-516h-76zM161 765l88 -144l-41 -30l-93 118l-93 -118l-41 30l88 144h92z" />
    <glyph glyph-name="idieresis" unicode="&#xef;" horiz-adv-x="228" 
d="M76 0v516h76v-516h-76zM33 620q-50 0 -50 40v18q0 40 50 40t50 -40v-18q0 -40 -50 -40zM197 620q-50 0 -50 40v18q0 40 50 40t50 -40v-18q0 -40 -50 -40z" />
    <glyph glyph-name="eth" unicode="&#xf0;" horiz-adv-x="502" 
d="M380 712l-70 -51q31 -33 58 -74.5t47 -90.5t31.5 -106t11.5 -121q0 -149 -55.5 -215t-152.5 -66q-102 0 -155 66t-53 192t52 192t144 66q45 0 73.5 -23t45.5 -63h10q-11 51 -40.5 102.5t-73.5 98.5l-78 -57l-29 40l71 52q-27 25 -57 47t-62 39h116q28 -17 60 -44l77 56z
M250 56q60 0 93 34.5t33 112.5v86q0 78 -33 112.5t-93 34.5t-93 -34.5t-33 -112.5v-86q0 -78 33 -112.5t93 -34.5z" />
    <glyph glyph-name="ntilde" unicode="&#xf1;" horiz-adv-x="513" 
d="M76 0v516h76v-84h10q15 48 46.5 72t85.5 24q69 0 108.5 -47t39.5 -145v-336h-76v331q0 62 -25.5 95t-78.5 33q-46 0 -78 -28t-32 -79v-352h-76zM328 613q-17 0 -33 6t-41 20q-23 14 -37 19.5t-25 5.5q-15 0 -27 -7.5t-26 -20.5l-30 38q32 52 85 52q17 0 33 -6t41 -20
q23 -14 37 -19.5t25 -5.5q15 0 27 7.5t26 20.5l30 -38q-32 -52 -85 -52z" />
    <glyph glyph-name="ograve" unicode="&#xf2;" horiz-adv-x="504" 
d="M252 -12q-45 0 -84 15t-67 48t-44 84t-16 123t16 123t44 84t67 48t84 15t84 -15t67 -48t44 -84t16 -123t-16 -123t-44 -84t-67 -48t-84 -15zM252 56q62 0 95.5 37t33.5 113v104q0 76 -33.5 113t-95.5 37t-95.5 -37t-33.5 -113v-104q0 -76 33.5 -113t95.5 -37zM149 743
l69 36l77 -169l-49 -25z" />
    <glyph glyph-name="oacute" unicode="&#xf3;" horiz-adv-x="504" 
d="M252 -12q-45 0 -84 15t-67 48t-44 84t-16 123t16 123t44 84t67 48t84 15t84 -15t67 -48t44 -84t16 -123t-16 -123t-44 -84t-67 -48t-84 -15zM252 56q62 0 95.5 37t33.5 113v104q0 76 -33.5 113t-95.5 37t-95.5 -37t-33.5 -113v-104q0 -76 33.5 -113t95.5 -37zM260 585
l-49 25l77 169l69 -36z" />
    <glyph glyph-name="ocircumflex" unicode="&#xf4;" horiz-adv-x="504" 
d="M252 -12q-45 0 -84 15t-67 48t-44 84t-16 123t16 123t44 84t67 48t84 15t84 -15t67 -48t44 -84t16 -123t-16 -123t-44 -84t-67 -48t-84 -15zM252 56q62 0 95.5 37t33.5 113v104q0 76 -33.5 113t-95.5 37t-95.5 -37t-33.5 -113v-104q0 -76 33.5 -113t95.5 -37zM299 765
l101 -144l-41 -30l-106 118l-106 -118l-41 30l101 144h92z" />
    <glyph glyph-name="otilde" unicode="&#xf5;" horiz-adv-x="504" 
d="M252 -12q-45 0 -84 15t-67 48t-44 84t-16 123t16 123t44 84t67 48t84 15t84 -15t67 -48t44 -84t16 -123t-16 -123t-44 -84t-67 -48t-84 -15zM252 56q62 0 95.5 37t33.5 113v104q0 76 -33.5 113t-95.5 37t-95.5 -37t-33.5 -113v-104q0 -76 33.5 -113t95.5 -37zM320 613
q-17 0 -33 6t-41 20q-23 14 -37 19.5t-25 5.5q-15 0 -27 -7.5t-26 -20.5l-30 38q32 52 85 52q17 0 33 -6t41 -20q23 -14 37 -19.5t25 -5.5q15 0 27 7.5t26 20.5l30 -38q-32 -52 -85 -52z" />
    <glyph glyph-name="odieresis" unicode="&#xf6;" horiz-adv-x="504" 
d="M252 -12q-45 0 -84 15t-67 48t-44 84t-16 123t16 123t44 84t67 48t84 15t84 -15t67 -48t44 -84t16 -123t-16 -123t-44 -84t-67 -48t-84 -15zM252 56q62 0 95.5 37t33.5 113v104q0 76 -33.5 113t-95.5 37t-95.5 -37t-33.5 -113v-104q0 -76 33.5 -113t95.5 -37zM167 620
q-50 0 -50 40v18q0 40 50 40t50 -40v-18q0 -40 -50 -40zM339 620q-50 0 -50 40v18q0 40 50 40t50 -40v-18q0 -40 -50 -40z" />
    <glyph glyph-name="divide" unicode="&#xf7;" 
d="M60 273v64h420v-64h-420zM270 59q-32 0 -44.5 13t-12.5 33v20q0 20 12.5 33t44.5 13t44.5 -13t12.5 -33v-20q0 -20 -12.5 -33t-44.5 -13zM270 439q-32 0 -44.5 13t-12.5 33v20q0 20 12.5 33t44.5 13t44.5 -13t12.5 -33v-20q0 -20 -12.5 -33t-44.5 -13z" />
    <glyph glyph-name="oslash" unicode="&#xf8;" horiz-adv-x="504" 
d="M252 -12q-38 0 -72 11t-60 34l-51 -69l-44 32l58 79q-20 32 -31 77.5t-11 105.5q0 72 16 123t44 84t67 48t84 15q38 0 72 -11t60 -34l51 69l44 -32l-58 -79q20 -32 31 -77.5t11 -105.5q0 -72 -16 -123t-44 -84t-67 -48t-84 -15zM130 131l56 81l158 215q-33 33 -92 33
q-62 0 -95.5 -37t-33.5 -113v-95l-2 -84h9zM160 89q33 -33 92 -33q62 0 95.5 37t33.5 113v95l2 84h-9l-56 -81z" />
    <glyph glyph-name="ugrave" unicode="&#xf9;" horiz-adv-x="513" 
d="M361 84h-10q-15 -48 -46.5 -72t-85.5 -24q-69 0 -108.5 47t-39.5 145v336h76v-331q0 -62 25.5 -95t78.5 -33q46 0 78 28t32 79v352h76v-516h-76v84zM152 743l69 36l77 -169l-49 -25z" />
    <glyph glyph-name="uacute" unicode="&#xfa;" horiz-adv-x="513" 
d="M361 84h-10q-15 -48 -46.5 -72t-85.5 -24q-69 0 -108.5 47t-39.5 145v336h76v-331q0 -62 25.5 -95t78.5 -33q46 0 78 28t32 79v352h76v-516h-76v84zM263 585l-49 25l77 169l69 -36z" />
    <glyph glyph-name="ucircumflex" unicode="&#xfb;" horiz-adv-x="513" 
d="M361 84h-10q-15 -48 -46.5 -72t-85.5 -24q-69 0 -108.5 47t-39.5 145v336h76v-331q0 -62 25.5 -95t78.5 -33q46 0 78 28t32 79v352h76v-516h-76v84zM302 765l101 -144l-41 -30l-106 118l-106 -118l-41 30l101 144h92z" />
    <glyph glyph-name="udieresis" unicode="&#xfc;" horiz-adv-x="513" 
d="M361 84h-10q-15 -48 -46.5 -72t-85.5 -24q-69 0 -108.5 47t-39.5 145v336h76v-331q0 -62 25.5 -95t78.5 -33q46 0 78 28t32 79v352h76v-516h-76v84zM170 620q-50 0 -50 40v18q0 40 50 40t50 -40v-18q0 -40 -50 -40zM342 620q-50 0 -50 40v18q0 40 50 40t50 -40v-18
q0 -40 -50 -40z" />
    <glyph glyph-name="yacute" unicode="&#xfd;" horiz-adv-x="451" 
d="M356 516h74l-204 -648q-6 -20 -13 -33.5t-17.5 -21t-25 -10.5t-36.5 -3h-56v67h79l30 105l-171 544h76l79 -260l48 -189h10l48 189zM234 585l-49 25l77 169l69 -36z" />
    <glyph glyph-name="thorn" unicode="&#xfe;" horiz-adv-x="524" 
d="M76 740h76v-308h10q15 51 48.5 73.5t81.5 22.5q46 0 81 -19t59 -54t36 -85t12 -112t-12 -112t-36 -85t-59 -54t-81 -19q-48 0 -81.5 22.5t-48.5 73.5h-10v-284h-76v940zM269 56q63 0 96 39.5t33 110.5v104q0 71 -33 110.5t-96 39.5q-24 0 -45.5 -7t-37 -20t-25 -31
t-9.5 -40v-208q0 -22 9.5 -40t25 -31t37 -20t45.5 -7z" />
    <glyph glyph-name="ydieresis" unicode="&#xff;" horiz-adv-x="451" 
d="M356 516h74l-204 -648q-6 -20 -13 -33.5t-17.5 -21t-25 -10.5t-36.5 -3h-56v67h79l30 105l-171 544h76l79 -260l48 -189h10l48 189zM141 620q-50 0 -50 40v18q0 40 50 40t50 -40v-18q0 -40 -50 -40zM313 620q-50 0 -50 40v18q0 40 50 40t50 -40v-18q0 -40 -50 -40z" />
    <glyph glyph-name="Amacron" unicode="&#x100;" horiz-adv-x="579" 
d="M476 0l-62 209h-251l-62 -209h-80l218 698h100l219 -698h-82zM315 540l-22 87h-10l-22 -87l-79 -265h214zM164 873h254v-64h-254v64z" />
    <glyph glyph-name="amacron" unicode="&#x101;" horiz-adv-x="483" 
d="M402 0q-74 0 -74 74v10h-10q-13 -47 -47.5 -71.5t-82.5 -24.5q-75 0 -112 38t-37 112q0 72 47.5 114t148.5 42h93v57q0 57 -25.5 84t-80.5 27q-45 0 -72.5 -19.5t-47.5 -56.5l-45 42q20 42 64 70.5t104 28.5q88 0 133.5 -42.5t45.5 -125.5v-292h52v-67h-54zM207 54
q26 0 48.5 9t38.5 23.5t25 33t9 38.5v78h-95q-60 0 -87.5 -20t-27.5 -58v-28q0 -39 24 -57.5t65 -18.5zM102 703h254v-64h-254v64z" />
    <glyph glyph-name="Abreve" unicode="&#x102;" horiz-adv-x="579" 
d="M476 0l-62 209h-251l-62 -209h-80l218 698h100l219 -698h-82zM315 540l-22 87h-10l-22 -87l-79 -265h214zM291 766q-53 0 -87 30t-54 96l43 21l18 -33q15 -29 33 -40.5t47 -11.5t47 11.5t33 40.5l18 33l43 -21q-20 -66 -54 -96t-87 -30z" />
    <glyph glyph-name="abreve" unicode="&#x103;" horiz-adv-x="483" 
d="M402 0q-74 0 -74 74v10h-10q-13 -47 -47.5 -71.5t-82.5 -24.5q-75 0 -112 38t-37 112q0 72 47.5 114t148.5 42h93v57q0 57 -25.5 84t-80.5 27q-45 0 -72.5 -19.5t-47.5 -56.5l-45 42q20 42 64 70.5t104 28.5q88 0 133.5 -42.5t45.5 -125.5v-292h52v-67h-54zM207 54
q26 0 48.5 9t38.5 23.5t25 33t9 38.5v78h-95q-60 0 -87.5 -20t-27.5 -58v-28q0 -39 24 -57.5t65 -18.5zM229 596q-53 0 -87 30t-54 96l43 21l18 -33q15 -29 33 -40.5t47 -11.5t47 11.5t33 40.5l18 33l43 -21q-20 -66 -54 -96t-87 -30z" />
    <glyph glyph-name="Aogonek" unicode="&#x104;" horiz-adv-x="579" 
d="M578 -168q-10 -15 -32.5 -27t-51.5 -12q-45 0 -70 18.5t-25 50.5q0 71 110 129l-2 9h-31l-62 209h-251l-62 -209h-80l218 698h100l219 -698q-27 -20 -45.5 -36t-29.5 -30t-16 -27t-5 -27q0 -34 36 -34q29 0 45 22zM315 540l-22 87h-10l-22 -87l-79 -265h214z" />
    <glyph glyph-name="aogonek" unicode="&#x105;" horiz-adv-x="483" 
d="M476 -168q-10 -15 -32.5 -27t-51.5 -12q-41 0 -68 17t-27 52q0 42 32 73.5t78 55.5l-5 9q-74 0 -74 74v10h-10q-13 -47 -47.5 -71.5t-82.5 -24.5q-75 0 -112 38t-37 112q0 72 47.5 114t148.5 42h93v57q0 57 -25.5 84t-80.5 27q-45 0 -72.5 -19.5t-47.5 -56.5l-45 42
q20 42 64 70.5t104 28.5q88 0 133.5 -42.5t45.5 -125.5v-292h52v-67q-53 -38 -74.5 -64.5t-21.5 -55.5q0 -18 10.5 -26t25.5 -8q29 0 45 22zM207 54q26 0 48.5 9t38.5 23.5t25 33t9 38.5v78h-95q-60 0 -87.5 -20t-27.5 -58v-28q0 -39 24 -57.5t65 -18.5z" />
    <glyph glyph-name="Cacute" unicode="&#x106;" horiz-adv-x="561" 
d="M305 -12q-59 0 -106 21.5t-79.5 65.5t-50 112.5t-17.5 161.5t17.5 161.5t50 112.5t79.5 65.5t106 21.5q86 0 138 -36.5t82 -111.5l-64 -39q-19 57 -54.5 86.5t-101.5 29.5q-80 0 -123.5 -57.5t-43.5 -154.5v-156q0 -97 43.5 -154.5t123.5 -57.5q68 0 105 31.5t56 91.5
l64 -40q-30 -75 -84.5 -114.5t-140.5 -39.5zM312 755l-49 25l77 169l69 -36z" />
    <glyph glyph-name="cacute" unicode="&#x107;" horiz-adv-x="454" 
d="M246 -12q-96 0 -150.5 63t-54.5 207t54.5 207t150.5 63q73 0 116.5 -33.5t63.5 -85.5l-63 -32q-13 40 -41 61.5t-76 21.5q-63 0 -93 -37t-30 -113v-104q0 -76 30 -113t93 -37q50 0 80.5 22t48.5 67l56 -39q-23 -54 -69.5 -86t-115.5 -32zM256 585l-49 25l77 169l69 -36z
" />
    <glyph glyph-name="Ccircumflex" unicode="&#x108;" horiz-adv-x="561" 
d="M305 -12q-59 0 -106 21.5t-79.5 65.5t-50 112.5t-17.5 161.5t17.5 161.5t50 112.5t79.5 65.5t106 21.5q86 0 138 -36.5t82 -111.5l-64 -39q-19 57 -54.5 86.5t-101.5 29.5q-80 0 -123.5 -57.5t-43.5 -154.5v-156q0 -97 43.5 -154.5t123.5 -57.5q68 0 105 31.5t56 91.5
l64 -40q-30 -75 -84.5 -114.5t-140.5 -39.5zM351 935l101 -144l-41 -30l-106 118l-106 -118l-41 30l101 144h92z" />
    <glyph glyph-name="ccircumflex" unicode="&#x109;" horiz-adv-x="454" 
d="M246 -12q-96 0 -150.5 63t-54.5 207t54.5 207t150.5 63q73 0 116.5 -33.5t63.5 -85.5l-63 -32q-13 40 -41 61.5t-76 21.5q-63 0 -93 -37t-30 -113v-104q0 -76 30 -113t93 -37q50 0 80.5 22t48.5 67l56 -39q-23 -54 -69.5 -86t-115.5 -32zM295 765l101 -144l-41 -30
l-106 118l-106 -118l-41 30l101 144h92z" />
    <glyph glyph-name="Cdotaccent" unicode="&#x10a;" horiz-adv-x="561" 
d="M305 -12q-59 0 -106 21.5t-79.5 65.5t-50 112.5t-17.5 161.5t17.5 161.5t50 112.5t79.5 65.5t106 21.5q86 0 138 -36.5t82 -111.5l-64 -39q-19 57 -54.5 86.5t-101.5 29.5q-80 0 -123.5 -57.5t-43.5 -154.5v-156q0 -97 43.5 -154.5t123.5 -57.5q68 0 105 31.5t56 91.5
l64 -40q-30 -75 -84.5 -114.5t-140.5 -39.5zM305 792q-50 0 -50 40v18q0 40 50 40t50 -40v-18q0 -40 -50 -40z" />
    <glyph glyph-name="cdotaccent" unicode="&#x10b;" horiz-adv-x="454" 
d="M246 -12q-96 0 -150.5 63t-54.5 207t54.5 207t150.5 63q73 0 116.5 -33.5t63.5 -85.5l-63 -32q-13 40 -41 61.5t-76 21.5q-63 0 -93 -37t-30 -113v-104q0 -76 30 -113t93 -37q50 0 80.5 22t48.5 67l56 -39q-23 -54 -69.5 -86t-115.5 -32zM249 618q-50 0 -50 40v18
q0 40 50 40t50 -40v-18q0 -40 -50 -40z" />
    <glyph glyph-name="Ccaron" unicode="&#x10c;" horiz-adv-x="561" 
d="M305 -12q-59 0 -106 21.5t-79.5 65.5t-50 112.5t-17.5 161.5t17.5 161.5t50 112.5t79.5 65.5t106 21.5q86 0 138 -36.5t82 -111.5l-64 -39q-19 57 -54.5 86.5t-101.5 29.5q-80 0 -123.5 -57.5t-43.5 -154.5v-156q0 -97 43.5 -154.5t123.5 -57.5q68 0 105 31.5t56 91.5
l64 -40q-30 -75 -84.5 -114.5t-140.5 -39.5zM259 769l-101 144l41 30l106 -118l106 118l41 -30l-101 -144h-92z" />
    <glyph glyph-name="ccaron" unicode="&#x10d;" horiz-adv-x="454" 
d="M246 -12q-96 0 -150.5 63t-54.5 207t54.5 207t150.5 63q73 0 116.5 -33.5t63.5 -85.5l-63 -32q-13 40 -41 61.5t-76 21.5q-63 0 -93 -37t-30 -113v-104q0 -76 30 -113t93 -37q50 0 80.5 22t48.5 67l56 -39q-23 -54 -69.5 -86t-115.5 -32zM203 599l-101 144l41 30
l106 -118l106 118l41 -30l-101 -144h-92z" />
    <glyph glyph-name="Dcaron" unicode="&#x10e;" horiz-adv-x="607" 
d="M83 698h219q121 0 187 -83.5t66 -265.5t-66 -265.5t-187 -83.5h-219v698zM302 70q75 0 121 52t46 149v156q0 97 -46 149t-121 52h-139v-558h139zM231 769l-101 144l41 30l106 -118l106 118l41 -30l-101 -144h-92z" />
    <glyph glyph-name="dcaron" unicode="&#x10f;" horiz-adv-x="524" 
d="M372 84h-10q-15 -51 -48.5 -73.5t-81.5 -22.5q-46 0 -81 19t-59 54t-36 85t-12 112t12 112t36 85t59 54t81 19q48 0 81.5 -22.5t48.5 -73.5h10v308h76v-740h-76v84zM255 56q24 0 45.5 7t37 20t25 31t9.5 40v208q0 22 -9.5 40t-25 31t-37 20t-45.5 7q-63 0 -96 -39.5
t-33 -110.5v-104q0 -71 33 -110.5t96 -39.5zM553 555h-51l11 185h87z" />
    <glyph glyph-name="Dcroat" unicode="&#x110;" horiz-adv-x="610" 
d="M86 336h-64v60h64v302h219q121 0 187 -83.5t66 -265.5t-66 -265.5t-187 -83.5h-219v336zM305 70q75 0 121 52t46 149v156q0 97 -46 149t-121 52h-139v-232h124v-60h-124v-266h139z" />
    <glyph glyph-name="dcroat" unicode="&#x111;" horiz-adv-x="524" 
d="M372 84h-10q-15 -51 -48.5 -73.5t-81.5 -22.5q-46 0 -81 19t-59 54t-36 85t-12 112t12 112t36 85t59 54t81 19q48 0 81.5 -22.5t48.5 -73.5h10v182h-135v56h135v70h76v-70h60v-56h-60v-614h-76v84zM255 56q24 0 45.5 7t37 20t25 31t9.5 40v208q0 22 -9.5 40t-25 31
t-37 20t-45.5 7q-63 0 -96 -39.5t-33 -110.5v-104q0 -71 33 -110.5t96 -39.5z" />
    <glyph glyph-name="Emacron" unicode="&#x112;" horiz-adv-x="526" 
d="M83 0v698h386v-70h-306v-240h287v-70h-287v-248h306v-70h-386zM147 873h254v-64h-254v64z" />
    <glyph glyph-name="emacron" unicode="&#x113;" horiz-adv-x="495" 
d="M252 -12q-45 0 -84 15t-67 48t-44 84t-16 123t16 123t44 84t67 48t84 15t82.5 -15t63.5 -48t40.5 -84t14.5 -123v-19h-331v-33q0 -76 34.5 -113.5t95.5 -37.5q52 0 85 22.5t52 67.5l52 -38q-24 -53 -70.5 -86t-118.5 -33zM252 464q-62 0 -96 -39t-34 -115v-13h250v13
q0 154 -120 154zM126 703h254v-64h-254v64z" />
    <glyph glyph-name="Ebreve" unicode="&#x114;" horiz-adv-x="526" 
d="M83 0v698h386v-70h-306v-240h287v-70h-287v-248h306v-70h-386zM274 766q-53 0 -87 30t-54 96l43 21l18 -33q15 -29 33 -40.5t47 -11.5t47 11.5t33 40.5l18 33l43 -21q-20 -66 -54 -96t-87 -30z" />
    <glyph glyph-name="ebreve" unicode="&#x115;" horiz-adv-x="495" 
d="M252 -12q-45 0 -84 15t-67 48t-44 84t-16 123t16 123t44 84t67 48t84 15t82.5 -15t63.5 -48t40.5 -84t14.5 -123v-19h-331v-33q0 -76 34.5 -113.5t95.5 -37.5q52 0 85 22.5t52 67.5l52 -38q-24 -53 -70.5 -86t-118.5 -33zM252 464q-62 0 -96 -39t-34 -115v-13h250v13
q0 154 -120 154zM253 596q-53 0 -87 30t-54 96l43 21l18 -33q15 -29 33 -40.5t47 -11.5t47 11.5t33 40.5l18 33l43 -21q-20 -66 -54 -96t-87 -30z" />
    <glyph glyph-name="Edotaccent" unicode="&#x116;" horiz-adv-x="526" 
d="M83 0v698h386v-70h-306v-240h287v-70h-287v-248h306v-70h-386zM274 792q-50 0 -50 40v18q0 40 50 40t50 -40v-18q0 -40 -50 -40z" />
    <glyph glyph-name="edotaccent" unicode="&#x117;" horiz-adv-x="495" 
d="M252 -12q-45 0 -84 15t-67 48t-44 84t-16 123t16 123t44 84t67 48t84 15t82.5 -15t63.5 -48t40.5 -84t14.5 -123v-19h-331v-33q0 -76 34.5 -113.5t95.5 -37.5q52 0 85 22.5t52 67.5l52 -38q-24 -53 -70.5 -86t-118.5 -33zM252 464q-62 0 -96 -39t-34 -115v-13h250v13
q0 154 -120 154zM253 618q-50 0 -50 40v18q0 40 50 40t50 -40v-18q0 -40 -50 -40z" />
    <glyph glyph-name="Eogonek" unicode="&#x118;" horiz-adv-x="526" 
d="M83 698h386v-70h-306v-240h287v-70h-287v-248h306v-70q-27 -20 -45.5 -36t-29.5 -30t-16 -27t-5 -27q0 -34 36 -34q29 0 45 22l35 -36q-11 -17 -34.5 -28t-49.5 -11q-45 0 -70 18.5t-25 50.5q0 71 110 129l-1 9h-336v698z" />
    <glyph glyph-name="eogonek" unicode="&#x119;" horiz-adv-x="495" 
d="M305 -207q-41 0 -68 17t-27 52q0 42 28.5 70.5t73.5 55.5l-3 7q-24 -7 -57 -7q-45 0 -84 15t-67 48t-44 84t-16 123t16 123t44 84t67 48t84 15t82.5 -15t63.5 -48t40.5 -84t14.5 -123v-19h-331v-33q0 -76 34.5 -113.5t95.5 -37.5q52 0 85 22.5t52 67.5l52 -38
q-17 -37 -47 -67q-38 -38 -62 -63.5t-37 -43t-17.5 -29.5t-4.5 -24q0 -18 10.5 -26t25.5 -8q29 0 45 22l35 -36q-10 -15 -32.5 -27t-51.5 -12zM372 297v13q0 154 -120 154q-62 0 -96 -39t-34 -115v-13h250z" />
    <glyph glyph-name="Ecaron" unicode="&#x11a;" horiz-adv-x="526" 
d="M83 0v698h386v-70h-306v-240h287v-70h-287v-248h306v-70h-386zM228 769l-101 144l41 30l106 -118l106 118l41 -30l-101 -144h-92z" />
    <glyph glyph-name="ecaron" unicode="&#x11b;" horiz-adv-x="495" 
d="M252 -12q-45 0 -84 15t-67 48t-44 84t-16 123t16 123t44 84t67 48t84 15t82.5 -15t63.5 -48t40.5 -84t14.5 -123v-19h-331v-33q0 -76 34.5 -113.5t95.5 -37.5q52 0 85 22.5t52 67.5l52 -38q-24 -53 -70.5 -86t-118.5 -33zM252 464q-62 0 -96 -39t-34 -115v-13h250v13
q0 154 -120 154zM207 599l-101 144l41 30l106 -118l106 118l41 -30l-101 -144h-92z" />
    <glyph glyph-name="Gcircumflex" unicode="&#x11c;" horiz-adv-x="627" 
d="M489 97h-10q-11 -47 -53.5 -78t-119.5 -31q-57 0 -104 21.5t-80 65.5t-51.5 112.5t-18.5 161.5q0 187 70 274t197 87q92 0 147 -39.5t86 -108.5l-66 -40q-20 55 -61 86t-106 31q-87 0 -134 -57.5t-47 -154.5v-156q0 -97 47 -154.5t134 -57.5q34 0 64.5 10t53 29.5
t35.5 48t13 64.5v76h-138v70h216v-357h-74v97zM366 935l101 -144l-41 -30l-106 118l-106 -118l-41 30l101 144h92z" />
    <glyph glyph-name="gcircumflex" unicode="&#x11d;" horiz-adv-x="477" 
d="M470 -58q0 -82 -55.5 -118t-171.5 -36q-111 0 -158.5 33t-47.5 95q0 42 21 66t54 30v14q-20 11 -31.5 28.5t-11.5 41.5q0 32 18.5 55t60.5 28v11q-40 20 -62.5 59.5t-22.5 99.5q0 88 48 133t129 45q41 0 72 -11h144v-61h-110v-8q34 -8 52.5 -34.5t18.5 -63.5
q0 -88 -48 -133t-129 -45q-24 0 -49 5q-28 -5 -42.5 -22.5t-14.5 -35.5q0 -20 14 -30t46 -10h113q87 0 125 -35t38 -101zM240 233q47 0 73 24t26 74v37q0 50 -26 74t-73 24t-73 -24t-26 -74v-37q0 -50 26 -74t73 -24zM399 -63q0 34 -21 51.5t-72 17.5h-157
q-23 -11 -32.5 -28t-9.5 -43q0 -39 24 -61.5t77 -22.5h66q62 0 93.5 20.5t31.5 65.5zM287 765l101 -144l-41 -30l-106 118l-106 -118l-41 30l101 144h92z" />
    <glyph glyph-name="Gbreve" unicode="&#x11e;" horiz-adv-x="627" 
d="M489 97h-10q-11 -47 -53.5 -78t-119.5 -31q-57 0 -104 21.5t-80 65.5t-51.5 112.5t-18.5 161.5q0 187 70 274t197 87q92 0 147 -39.5t86 -108.5l-66 -40q-20 55 -61 86t-106 31q-87 0 -134 -57.5t-47 -154.5v-156q0 -97 47 -154.5t134 -57.5q34 0 64.5 10t53 29.5
t35.5 48t13 64.5v76h-138v70h216v-357h-74v97zM320 766q-53 0 -87 30t-54 96l43 21l18 -33q15 -29 33 -40.5t47 -11.5t47 11.5t33 40.5l18 33l43 -21q-20 -66 -54 -96t-87 -30z" />
    <glyph glyph-name="gbreve" unicode="&#x11f;" horiz-adv-x="477" 
d="M470 -58q0 -82 -55.5 -118t-171.5 -36q-111 0 -158.5 33t-47.5 95q0 42 21 66t54 30v14q-20 11 -31.5 28.5t-11.5 41.5q0 32 18.5 55t60.5 28v11q-40 20 -62.5 59.5t-22.5 99.5q0 88 48 133t129 45q41 0 72 -11h144v-61h-110v-8q34 -8 52.5 -34.5t18.5 -63.5
q0 -88 -48 -133t-129 -45q-24 0 -49 5q-28 -5 -42.5 -22.5t-14.5 -35.5q0 -20 14 -30t46 -10h113q87 0 125 -35t38 -101zM240 233q47 0 73 24t26 74v37q0 50 -26 74t-73 24t-73 -24t-26 -74v-37q0 -50 26 -74t73 -24zM399 -63q0 34 -21 51.5t-72 17.5h-157
q-23 -11 -32.5 -28t-9.5 -43q0 -39 24 -61.5t77 -22.5h66q62 0 93.5 20.5t31.5 65.5zM241 596q-53 0 -87 30t-54 96l43 21l18 -33q15 -29 33 -40.5t47 -11.5t47 11.5t33 40.5l18 33l43 -21q-20 -66 -54 -96t-87 -30z" />
    <glyph glyph-name="Gdotaccent" unicode="&#x120;" horiz-adv-x="627" 
d="M489 97h-10q-11 -47 -53.5 -78t-119.5 -31q-57 0 -104 21.5t-80 65.5t-51.5 112.5t-18.5 161.5q0 187 70 274t197 87q92 0 147 -39.5t86 -108.5l-66 -40q-20 55 -61 86t-106 31q-87 0 -134 -57.5t-47 -154.5v-156q0 -97 47 -154.5t134 -57.5q34 0 64.5 10t53 29.5
t35.5 48t13 64.5v76h-138v70h216v-357h-74v97zM320 792q-50 0 -50 40v18q0 40 50 40t50 -40v-18q0 -40 -50 -40z" />
    <glyph glyph-name="gdotaccent" unicode="&#x121;" horiz-adv-x="477" 
d="M470 -58q0 -82 -55.5 -118t-171.5 -36q-111 0 -158.5 33t-47.5 95q0 42 21 66t54 30v14q-20 11 -31.5 28.5t-11.5 41.5q0 32 18.5 55t60.5 28v11q-40 20 -62.5 59.5t-22.5 99.5q0 88 48 133t129 45q41 0 72 -11h144v-61h-110v-8q34 -8 52.5 -34.5t18.5 -63.5
q0 -88 -48 -133t-129 -45q-24 0 -49 5q-28 -5 -42.5 -22.5t-14.5 -35.5q0 -20 14 -30t46 -10h113q87 0 125 -35t38 -101zM240 233q47 0 73 24t26 74v37q0 50 -26 74t-73 24t-73 -24t-26 -74v-37q0 -50 26 -74t73 -24zM399 -63q0 34 -21 51.5t-72 17.5h-157
q-23 -11 -32.5 -28t-9.5 -43q0 -39 24 -61.5t77 -22.5h66q62 0 93.5 20.5t31.5 65.5zM241 618q-50 0 -50 40v18q0 40 50 40t50 -40v-18q0 -40 -50 -40z" />
    <glyph glyph-name="Gcommaaccent" unicode="&#x122;" horiz-adv-x="627" 
d="M489 97h-10q-11 -47 -53.5 -78t-119.5 -31q-57 0 -104 21.5t-80 65.5t-51.5 112.5t-18.5 161.5q0 187 70 274t197 87q92 0 147 -39.5t86 -108.5l-66 -40q-20 55 -61 86t-106 31q-87 0 -134 -57.5t-47 -154.5v-156q0 -97 47 -154.5t134 -57.5q34 0 64.5 10t53 29.5
t35.5 48t13 64.5v76h-138v70h216v-357h-74v97zM313 -68q50 0 50 -40v-18q0 -35 -17 -66t-40 -54h-54q20 23 32.5 40.5t18.5 40.5q-20 2 -30 12t-10 27v18q0 40 50 40z" />
    <glyph glyph-name="gcommaaccent" unicode="&#x123;" horiz-adv-x="477" 
d="M470 -58q0 -82 -55.5 -118t-171.5 -36q-111 0 -158.5 33t-47.5 95q0 42 21 66t54 30v14q-20 11 -31.5 28.5t-11.5 41.5q0 32 18.5 55t60.5 28v11q-40 20 -62.5 59.5t-22.5 99.5q0 88 48 133t129 45q41 0 72 -11h144v-61h-110v-8q34 -8 52.5 -34.5t18.5 -63.5
q0 -88 -48 -133t-129 -45q-24 0 -49 5q-28 -5 -42.5 -22.5t-14.5 -35.5q0 -20 14 -30t46 -10h113q87 0 125 -35t38 -101zM240 233q47 0 73 24t26 74v37q0 50 -26 74t-73 24t-73 -24t-26 -74v-37q0 -50 26 -74t73 -24zM399 -63q0 34 -21 51.5t-72 17.5h-157
q-23 -11 -32.5 -28t-9.5 -43q0 -39 24 -61.5t77 -22.5h66q62 0 93.5 20.5t31.5 65.5zM241 596q-50 0 -50 40v18q0 35 17 66t40 54h54q-20 -23 -32.5 -40.5t-18.5 -40.5q20 -2 30 -12t10 -27v-18q0 -40 -50 -40z" />
    <glyph glyph-name="Hcircumflex" unicode="&#x124;" horiz-adv-x="637" 
d="M474 318h-311v-318h-80v698h80v-310h311v310h80v-698h-80v318zM365 935l101 -144l-41 -30l-106 118l-106 -118l-41 30l101 144h92z" />
    <glyph glyph-name="hcircumflex" unicode="&#x125;" horiz-adv-x="513" 
d="M76 740h76v-308h10q15 48 46.5 72t85.5 24q69 0 108.5 -47t39.5 -145v-336h-76v331q0 62 -25.5 95t-78.5 33q-46 0 -78 -28t-32 -79v-352h-76v740zM162 923l101 -144l-41 -30l-106 118l-106 -118l-41 30l101 144h92z" />
    <glyph glyph-name="Hbar" unicode="&#x126;" horiz-adv-x="644" 
d="M477 318h-311v-318h-80v519h-64v60h64v119h80v-119h311v119h81v-119h64v-60h-64v-519h-81v318zM477 388v131h-311v-131h311z" />
    <glyph glyph-name="hbar" unicode="&#x127;" horiz-adv-x="513" 
d="M76 0v614h-60v56h60v70h76v-70h135v-56h-135v-182h10q15 48 46.5 72t85.5 24q69 0 108.5 -47t39.5 -145v-336h-76v331q0 62 -25.5 95t-78.5 33q-46 0 -78 -28t-32 -79v-352h-76z" />
    <glyph glyph-name="Itilde" unicode="&#x128;" horiz-adv-x="362" 
d="M53 0v66h88v566h-88v66h256v-66h-88v-566h88v-66h-256zM249 784q-17 0 -33 6t-41 20q-23 14 -37 19.5t-25 5.5q-15 0 -27 -7.5t-26 -20.5l-30 38q32 52 85 52q17 0 33 -6t41 -20q23 -14 37 -19.5t25 -5.5q15 0 27 7.5t26 20.5l30 -38q-32 -52 -85 -52z" />
    <glyph glyph-name="itilde" unicode="&#x129;" horiz-adv-x="228" 
d="M76 0v516h76v-516h-76zM171 618q-21 0 -35.5 6.5t-26.5 14.5q-17 11 -27.5 15.5t-23.5 4.5q-25 0 -51 -26l-29 38q31 51 81 51q21 0 35.5 -6.5t26.5 -14.5q17 -11 27.5 -15.5t23.5 -4.5q25 0 51 26l29 -38q-31 -51 -81 -51z" />
    <glyph glyph-name="Imacron" unicode="&#x12a;" horiz-adv-x="362" 
d="M53 0v66h88v566h-88v66h256v-66h-88v-566h88v-66h-256zM55 873h254v-64h-254v64z" />
    <glyph glyph-name="imacron" unicode="&#x12b;" horiz-adv-x="228" 
d="M76 0v516h76v-516h-76zM-6 703h242v-64h-242v64z" />
    <glyph glyph-name="Ibreve" unicode="&#x12c;" horiz-adv-x="362" 
d="M53 0v66h88v566h-88v66h256v-66h-88v-566h88v-66h-256zM182 766q-53 0 -87 30t-54 96l43 21l18 -33q15 -29 33 -40.5t47 -11.5t47 11.5t33 40.5l18 33l43 -21q-20 -66 -54 -96t-87 -30z" />
    <glyph glyph-name="ibreve" unicode="&#x12d;" horiz-adv-x="228" 
d="M76 0v516h76v-516h-76zM115 596q-51 0 -80 27.5t-46 98.5l43 19l12 -32q19 -51 71 -51q51 0 71 51l12 32l43 -19q-17 -71 -46 -98.5t-80 -27.5z" />
    <glyph glyph-name="Iogonek" unicode="&#x12e;" horiz-adv-x="362" 
d="M53 66h88v566h-88v66h256v-66h-88v-566h88v-66q-27 -20 -45.5 -36t-29.5 -30t-16 -27t-5 -27q0 -34 36 -34q29 0 45 22l35 -36q-10 -15 -32.5 -27t-51.5 -12q-45 0 -70 18.5t-25 50.5q0 71 110 129l-2 9h-205v66z" />
    <glyph glyph-name="iogonek" unicode="&#x12f;" horiz-adv-x="228" 
d="M114 641q-47 0 -47 41v16q0 41 47 41t47 -41v-16q0 -41 -47 -41zM172 -168q-10 -15 -32.5 -27t-51.5 -12q-45 0 -70 18.5t-25 50.5q0 71 110 129l-2 9h-25v516h76v-516q-27 -20 -45.5 -36t-29.5 -30t-16 -27t-5 -27q0 -34 36 -34q29 0 45 22z" />
    <glyph glyph-name="Idotaccent" unicode="&#x130;" horiz-adv-x="362" 
d="M53 0v66h88v566h-88v66h256v-66h-88v-566h88v-66h-256zM182 792q-50 0 -50 40v18q0 40 50 40t50 -40v-18q0 -40 -50 -40z" />
    <glyph glyph-name="dotlessi" unicode="&#x131;" horiz-adv-x="228" 
d="M76 0v516h76v-516h-76z" />
    <glyph glyph-name="IJ" unicode="&#x132;" horiz-adv-x="582" 
d="M503 698v-508q0 -47 -15.5 -84t-43 -63.5t-66.5 -40.5t-86 -14q-93 0 -145 45t-65 119l72 18q10 -49 41.5 -80t96.5 -31q63 0 97 36t34 110v423h-132v70h212zM78 698h80v-408h-80v408z" />
    <glyph glyph-name="ij" unicode="&#x133;" horiz-adv-x="456" 
d="M114 641q-47 0 -47 41v16q0 41 47 41t47 -41v-16q0 -41 -47 -41zM76 516h76v-516h-76v516zM304 516h76v-618q0 -51 -23.5 -74.5t-74.5 -23.5h-54v67h76v649zM342 641q-47 0 -47 41v16q0 41 47 41t47 -41v-16q0 -41 -47 -41z" />
    <glyph glyph-name="Jcircumflex" unicode="&#x134;" horiz-adv-x="462" 
d="M384 698v-538q0 -40 -13 -71.5t-37 -54t-57.5 -34.5t-73.5 -12q-80 0 -123.5 42.5t-56.5 111.5l72 18q9 -45 33 -73t75 -28q48 0 74.5 28.5t26.5 87.5v453h-214v70h294zM286 935l101 -144l-41 -30l-106 118l-106 -118l-41 30l101 144h92z" />
    <glyph glyph-name="jcircumflex" unicode="&#x135;" horiz-adv-x="228" 
d="M0 -133h76v649h76v-618q0 -51 -23.5 -74.5t-74.5 -23.5h-54v67zM161 765l88 -144l-41 -30l-93 118l-93 -118l-41 30l88 144h92z" />
    <glyph glyph-name="Kcommaaccent" unicode="&#x136;" horiz-adv-x="574" 
d="M254 346l-91 -114v-232h-80v698h80v-233l-6 -144h10l103 144l174 233h92l-230 -299l245 -399h-94zM304 -68q50 0 50 -40v-18q0 -35 -17 -66t-40 -54h-54q20 23 32.5 40.5t18.5 40.5q-20 2 -30 12t-10 27v18q0 40 50 40z" />
    <glyph glyph-name="kcommaaccent" unicode="&#x137;" horiz-adv-x="477" 
d="M76 740h76v-380l-6 -101h8l72 97l129 160h92l-171 -205l186 -311h-91l-151 266l-68 -80v-186h-76v740zM265 -68q50 0 50 -40v-18q0 -35 -17 -66t-40 -54h-54q20 23 32.5 40.5t18.5 40.5q-20 2 -30 12t-10 27v18q0 40 50 40z" />
    <glyph glyph-name="kgreenlandic" unicode="&#x138;" horiz-adv-x="477" 
d="M220 266l-68 -80v-186h-76v516h76v-156l-6 -101h8l72 97l129 160h92l-171 -205l186 -311h-91z" />
    <glyph glyph-name="Lacute" unicode="&#x139;" horiz-adv-x="453" 
d="M83 0v698h80v-628h265v-70h-345zM131 755l-49 25l77 169l69 -36z" />
    <glyph glyph-name="lacute" unicode="&#x13a;" horiz-adv-x="247" 
d="M154 0q-41 0 -59.5 18.5t-18.5 59.5v662h76v-673h65v-67h-63zM122 785l-49 25l77 169l69 -36z" />
    <glyph glyph-name="Lcommaaccent" unicode="&#x13b;" horiz-adv-x="453" 
d="M83 0v698h80v-628h265v-70h-345zM267 -68q50 0 50 -40v-18q0 -35 -17 -66t-40 -54h-54q20 23 32.5 40.5t18.5 40.5q-20 2 -30 12t-10 27v18q0 40 50 40z" />
    <glyph glyph-name="lcommaaccent" unicode="&#x13c;" horiz-adv-x="247" 
d="M154 0q-41 0 -59.5 18.5t-18.5 59.5v662h76v-673h65v-67h-63zM148 -68q50 0 50 -40v-18q0 -35 -17 -66t-40 -54h-54q20 23 32.5 40.5t18.5 40.5q-20 2 -30 12t-10 27v18q0 40 50 40z" />
    <glyph glyph-name="Lcaron" unicode="&#x13d;" horiz-adv-x="453" 
d="M83 0v698h80v-628h265v-70h-345zM285 555h-51l11 185h87z" />
    <glyph glyph-name="lcaron" unicode="&#x13e;" horiz-adv-x="247" 
d="M154 0q-41 0 -59.5 18.5t-18.5 59.5v662h76v-673h65v-67h-63zM258 555h-51l11 185h87z" />
    <glyph glyph-name="Ldot" unicode="&#x13f;" horiz-adv-x="453" 
d="M83 0v698h80v-628h265v-70h-345zM348 292q-50 0 -50 40v18q0 40 50 40t50 -40v-18q0 -40 -50 -40z" />
    <glyph glyph-name="ldot" unicode="&#x140;" horiz-adv-x="327" 
d="M154 0q-41 0 -59.5 18.5t-18.5 59.5v662h76v-673h65v-67h-63zM277 257q-50 0 -50 40v18q0 40 50 40t50 -40v-18q0 -40 -50 -40z" />
    <glyph glyph-name="Lslash" unicode="&#x141;" horiz-adv-x="461" 
d="M436 0h-345v271l-90 -32v63l90 34v362h80v-332l160 60v-68l-160 -58v-230h265v-70z" />
    <glyph glyph-name="lslash" unicode="&#x142;" horiz-adv-x="252" 
d="M217 0h-63q-41 0 -59.5 18.5t-18.5 59.5v248l-60 -22v65l60 22v349h76v-322l85 31v-65l-85 -31v-286h65v-67z" />
    <glyph glyph-name="Nacute" unicode="&#x143;" horiz-adv-x="637" 
d="M225 453l-61 144h-10l7 -144v-453h-78v698h98l232 -453l61 -144h10l-7 144v453h78v-698h-98zM325 755l-49 25l77 169l69 -36z" />
    <glyph glyph-name="nacute" unicode="&#x144;" horiz-adv-x="513" 
d="M76 0v516h76v-84h10q15 48 46.5 72t85.5 24q69 0 108.5 -47t39.5 -145v-336h-76v331q0 62 -25.5 95t-78.5 33q-46 0 -78 -28t-32 -79v-352h-76zM268 585l-49 25l77 169l69 -36z" />
    <glyph glyph-name="Ncommaaccent" unicode="&#x145;" horiz-adv-x="637" 
d="M225 453l-61 144h-10l7 -144v-453h-78v698h98l232 -453l61 -144h10l-7 144v453h78v-698h-98zM318 -68q50 0 50 -40v-18q0 -35 -17 -66t-40 -54h-54q20 23 32.5 40.5t18.5 40.5q-20 2 -30 12t-10 27v18q0 40 50 40z" />
    <glyph glyph-name="ncommaaccent" unicode="&#x146;" horiz-adv-x="513" 
d="M76 0v516h76v-84h10q15 48 46.5 72t85.5 24q69 0 108.5 -47t39.5 -145v-336h-76v331q0 62 -25.5 95t-78.5 33q-46 0 -78 -28t-32 -79v-352h-76zM259 -68q50 0 50 -40v-18q0 -35 -17 -66t-40 -54h-54q20 23 32.5 40.5t18.5 40.5q-20 2 -30 12t-10 27v18q0 40 50 40z" />
    <glyph glyph-name="Ncaron" unicode="&#x147;" horiz-adv-x="637" 
d="M225 453l-61 144h-10l7 -144v-453h-78v698h98l232 -453l61 -144h10l-7 144v453h78v-698h-98zM272 769l-101 144l41 30l106 -118l106 118l41 -30l-101 -144h-92z" />
    <glyph glyph-name="ncaron" unicode="&#x148;" horiz-adv-x="513" 
d="M76 0v516h76v-84h10q15 48 46.5 72t85.5 24q69 0 108.5 -47t39.5 -145v-336h-76v331q0 62 -25.5 95t-78.5 33q-46 0 -78 -28t-32 -79v-352h-76zM215 599l-101 144l41 30l106 -118l106 118l41 -30l-101 -144h-92z" />
    <glyph glyph-name="napostrophe" unicode="&#x149;" horiz-adv-x="761" 
d="M124 745q59 0 59 -51v-16q0 -39 -23.5 -86.5t-62.5 -84.5h-62q27 32 44 59.5t25 62.5q-39 9 -39 49v16q0 51 59 51zM324 0v516h76v-84h10q15 48 46.5 72t85.5 24q69 0 108.5 -47t39.5 -145v-336h-76v331q0 62 -25.5 95t-78.5 33q-46 0 -78 -28t-32 -79v-352h-76z" />
    <glyph glyph-name="Eng" unicode="&#x14a;" horiz-adv-x="637" 
d="M83 0v698h98l232 -453l61 -144h10l-7 144v453h78v-800q0 -51 -23.5 -74.5t-74.5 -23.5h-54v68h74v132h-20l-232 453l-61 144h-10l7 -144v-453h-78z" />
    <glyph glyph-name="eng" unicode="&#x14b;" horiz-adv-x="513" 
d="M290 -133h76v464q0 62 -25.5 95t-78.5 33q-46 0 -78 -28t-32 -79v-352h-76v516h76v-84h10q15 48 46.5 72t85.5 24q69 0 108.5 -47t39.5 -145v-438q0 -51 -23.5 -74.5t-74.5 -23.5h-54v67z" />
    <glyph glyph-name="Omacron" unicode="&#x14c;" horiz-adv-x="638" 
d="M319 -12q-127 0 -197 87t-70 274t70 274t197 87t197 -87t70 -274t-70 -274t-197 -87zM319 59q87 0 134 57.5t47 154.5v156q0 97 -47 154.5t-134 57.5t-134 -57.5t-47 -154.5v-156q0 -97 47 -154.5t134 -57.5zM192 873h254v-64h-254v64z" />
    <glyph glyph-name="omacron" unicode="&#x14d;" horiz-adv-x="504" 
d="M252 -12q-45 0 -84 15t-67 48t-44 84t-16 123t16 123t44 84t67 48t84 15t84 -15t67 -48t44 -84t16 -123t-16 -123t-44 -84t-67 -48t-84 -15zM252 56q62 0 95.5 37t33.5 113v104q0 76 -33.5 113t-95.5 37t-95.5 -37t-33.5 -113v-104q0 -76 33.5 -113t95.5 -37zM126 703
h254v-64h-254v64z" />
    <glyph glyph-name="Obreve" unicode="&#x14e;" horiz-adv-x="638" 
d="M319 -12q-127 0 -197 87t-70 274t70 274t197 87t197 -87t70 -274t-70 -274t-197 -87zM319 59q87 0 134 57.5t47 154.5v156q0 97 -47 154.5t-134 57.5t-134 -57.5t-47 -154.5v-156q0 -97 47 -154.5t134 -57.5zM319 766q-53 0 -87 30t-54 96l43 21l18 -33q15 -29 33 -40.5
t47 -11.5t47 11.5t33 40.5l18 33l43 -21q-20 -66 -54 -96t-87 -30z" />
    <glyph glyph-name="obreve" unicode="&#x14f;" horiz-adv-x="504" 
d="M252 -12q-45 0 -84 15t-67 48t-44 84t-16 123t16 123t44 84t67 48t84 15t84 -15t67 -48t44 -84t16 -123t-16 -123t-44 -84t-67 -48t-84 -15zM252 56q62 0 95.5 37t33.5 113v104q0 76 -33.5 113t-95.5 37t-95.5 -37t-33.5 -113v-104q0 -76 33.5 -113t95.5 -37zM253 596
q-53 0 -87 30t-54 96l43 21l18 -33q15 -29 33 -40.5t47 -11.5t47 11.5t33 40.5l18 33l43 -21q-20 -66 -54 -96t-87 -30z" />
    <glyph glyph-name="Ohungarumlaut" unicode="&#x150;" horiz-adv-x="638" 
d="M319 -12q-127 0 -197 87t-70 274t70 274t197 87t197 -87t70 -274t-70 -274t-197 -87zM319 59q87 0 134 57.5t47 154.5v156q0 97 -47 154.5t-134 57.5t-134 -57.5t-47 -154.5v-156q0 -97 47 -154.5t134 -57.5zM252 756l-45 24l77 170l65 -35zM399 756l-45 24l77 170
l65 -35z" />
    <glyph glyph-name="ohungarumlaut" unicode="&#x151;" horiz-adv-x="504" 
d="M252 -12q-45 0 -84 15t-67 48t-44 84t-16 123t16 123t44 84t67 48t84 15t84 -15t67 -48t44 -84t16 -123t-16 -123t-44 -84t-67 -48t-84 -15zM252 56q62 0 95.5 37t33.5 113v104q0 76 -33.5 113t-95.5 37t-95.5 -37t-33.5 -113v-104q0 -76 33.5 -113t95.5 -37zM186 585
l-45 24l77 170l65 -35zM333 585l-45 24l77 170l65 -35z" />
    <glyph glyph-name="OE" unicode="&#x152;" horiz-adv-x="886" 
d="M443 0q-26 -6 -55.5 -9t-49.5 -3q-137 0 -212 87t-75 274t75 274t212 87q20 0 49.5 -3t55.5 -9h386v-70h-306v-240h287v-70h-287v-248h306v-70h-386zM137 271q0 -97 52 -154.5t149 -57.5q28 0 55 4t50 12v548q-23 8 -50 12t-55 4q-97 0 -149 -57.5t-52 -154.5v-156z" />
    <glyph glyph-name="oe" unicode="&#x153;" horiz-adv-x="836" 
d="M252 56q62 0 95.5 37t33.5 113v104q0 76 -33.5 113t-95.5 37t-95.5 -37t-33.5 -113v-104q0 -76 33.5 -113t95.5 -37zM713 297v13q0 154 -120 154q-62 0 -96 -39t-34 -115v-13h250zM593 -12q-32 0 -59.5 9t-49 24.5t-36.5 37t-21 47.5h-10q-12 -51 -57 -84.5t-108 -33.5
q-45 0 -84 15t-67 48t-44 84t-16 123t16 123t44 84t67 48t84 15q63 0 108 -33.5t57 -84.5h10q6 25 21 47t36.5 37.5t49 24.5t59.5 9q45 0 82.5 -15t63.5 -48t40.5 -84t14.5 -123v-19h-331v-33q0 -76 34.5 -113.5t95.5 -37.5q52 0 85 22.5t52 67.5l52 -38q-24 -53 -70.5 -86
t-118.5 -33z" />
    <glyph glyph-name="Racute" unicode="&#x154;" horiz-adv-x="578" 
d="M163 0h-80v698h257q173 0 173 -199q0 -168 -124 -194l141 -305h-90l-131 300h-146v-300zM338 368q89 0 89 96v68q0 96 -89 96h-175v-260h175zM284 755l-49 25l77 169l69 -36z" />
    <glyph glyph-name="racute" unicode="&#x155;" horiz-adv-x="332" 
d="M76 0v516h76v-96h10q13 45 44.5 70.5t82.5 25.5h28v-77h-50q-54 0 -84.5 -24t-30.5 -72v-343h-76zM205 585l-49 25l77 169l69 -36z" />
    <glyph glyph-name="Rcommaaccent" unicode="&#x156;" horiz-adv-x="578" 
d="M163 0h-80v698h257q173 0 173 -199q0 -168 -124 -194l141 -305h-90l-131 300h-146v-300zM338 368q89 0 89 96v68q0 96 -89 96h-175v-260h175zM293 -68q50 0 50 -40v-18q0 -35 -17 -66t-40 -54h-54q20 23 32.5 40.5t18.5 40.5q-20 2 -30 12t-10 27v18q0 40 50 40z" />
    <glyph glyph-name="rcommaaccent" unicode="&#x157;" horiz-adv-x="332" 
d="M76 0v516h76v-96h10q13 45 44.5 70.5t82.5 25.5h28v-77h-50q-54 0 -84.5 -24t-30.5 -72v-343h-76zM115 -68q50 0 50 -40v-18q0 -35 -17 -66t-40 -54h-54q20 23 32.5 40.5t18.5 40.5q-20 2 -30 12t-10 27v18q0 40 50 40z" />
    <glyph glyph-name="Rcaron" unicode="&#x158;" horiz-adv-x="578" 
d="M163 0h-80v698h257q173 0 173 -199q0 -168 -124 -194l141 -305h-90l-131 300h-146v-300zM338 368q89 0 89 96v68q0 96 -89 96h-175v-260h175zM231 769l-101 144l41 30l106 -118l106 118l41 -30l-101 -144h-92z" />
    <glyph glyph-name="rcaron" unicode="&#x159;" horiz-adv-x="332" 
d="M76 0v516h76v-96h10q13 45 44.5 70.5t82.5 25.5h28v-77h-50q-54 0 -84.5 -24t-30.5 -72v-343h-76zM152 599l-101 144l41 30l106 -118l106 118l41 -30l-101 -144h-92z" />
    <glyph glyph-name="Sacute" unicode="&#x15a;" horiz-adv-x="525" 
d="M261 -12q-75 0 -131 31.5t-93 87.5l58 48q32 -47 72 -72.5t94 -25.5q142 0 142 133q0 54 -26 82t-90 44l-52 13q-92 23 -135.5 67.5t-43.5 125.5q0 93 58 140.5t154 47.5q73 0 122.5 -27t86.5 -85l-59 -42q-27 42 -61.5 63.5t-91.5 21.5q-64 0 -97.5 -28t-33.5 -91
q0 -51 27.5 -77t88.5 -41l52 -13q49 -12 83 -28.5t55.5 -40.5t31 -56.5t9.5 -75.5q0 -99 -58.5 -150.5t-161.5 -51.5zM268 755l-49 25l77 169l69 -36z" />
    <glyph glyph-name="sacute" unicode="&#x15b;" horiz-adv-x="439" 
d="M219 -12q-64 0 -109.5 26t-77.5 72l53 44q27 -38 58.5 -58t75.5 -20q45 0 71.5 22.5t26.5 64.5q0 34 -17 55t-63 29l-39 7q-75 14 -111.5 47t-36.5 100q0 39 12 67.5t34 47t52.5 27t66.5 8.5q58 0 97.5 -20.5t68.5 -59.5l-49 -45q-17 24 -45 42.5t-72 18.5q-91 0 -91 -83
q0 -38 19.5 -55.5t63.5 -25.5l39 -7q79 -14 112 -49t33 -95q0 -75 -43.5 -117.5t-128.5 -42.5zM223 585l-49 25l77 169l69 -36z" />
    <glyph glyph-name="Scircumflex" unicode="&#x15c;" horiz-adv-x="525" 
d="M261 -12q-75 0 -131 31.5t-93 87.5l58 48q32 -47 72 -72.5t94 -25.5q142 0 142 133q0 54 -26 82t-90 44l-52 13q-92 23 -135.5 67.5t-43.5 125.5q0 93 58 140.5t154 47.5q73 0 122.5 -27t86.5 -85l-59 -42q-27 42 -61.5 63.5t-91.5 21.5q-64 0 -97.5 -28t-33.5 -91
q0 -51 27.5 -77t88.5 -41l52 -13q49 -12 83 -28.5t55.5 -40.5t31 -56.5t9.5 -75.5q0 -99 -58.5 -150.5t-161.5 -51.5zM307 935l101 -144l-41 -30l-106 118l-106 -118l-41 30l101 144h92z" />
    <glyph glyph-name="scircumflex" unicode="&#x15d;" horiz-adv-x="439" 
d="M219 -12q-64 0 -109.5 26t-77.5 72l53 44q27 -38 58.5 -58t75.5 -20q45 0 71.5 22.5t26.5 64.5q0 34 -17 55t-63 29l-39 7q-75 14 -111.5 47t-36.5 100q0 39 12 67.5t34 47t52.5 27t66.5 8.5q58 0 97.5 -20.5t68.5 -59.5l-49 -45q-17 24 -45 42.5t-72 18.5q-91 0 -91 -83
q0 -38 19.5 -55.5t63.5 -25.5l39 -7q79 -14 112 -49t33 -95q0 -75 -43.5 -117.5t-128.5 -42.5zM262 765l101 -144l-41 -30l-106 118l-106 -118l-41 30l101 144h92z" />
    <glyph glyph-name="Scedilla" unicode="&#x15e;" horiz-adv-x="525" 
d="M265 641q-64 0 -97.5 -28t-33.5 -91q0 -51 27.5 -77t88.5 -41l52 -13q49 -12 83 -28.5t55.5 -40.5t31 -56.5t9.5 -75.5q0 -94 -53 -145t-147 -56l-11 -59h8q5 7 13 11.5t23 4.5q58 0 58 -70q0 -21 -8.5 -36.5t-22.5 -26t-32.5 -15.5t-38.5 -5q-38 0 -59.5 13.5
t-32.5 27.5l35 39q10 -11 23.5 -19.5t33.5 -8.5q42 0 42 34t-42 34h-49l14 76q-66 5 -115 36t-83 82l58 48q32 -47 72 -72.5t94 -25.5q142 0 142 133q0 54 -26 82t-90 44l-52 13q-92 23 -135.5 67.5t-43.5 125.5q0 93 58 140.5t154 47.5q73 0 122.5 -27t86.5 -85l-59 -42
q-27 42 -61.5 63.5t-91.5 21.5z" />
    <glyph glyph-name="scedilla" unicode="&#x15f;" horiz-adv-x="439" 
d="M227 -207q-38 0 -59.5 13.5t-32.5 27.5l35 39q10 -11 23.5 -19.5t33.5 -8.5q42 0 42 34t-42 34h-49l14 76q-54 5 -93 30.5t-67 66.5l53 44q27 -38 58.5 -58t75.5 -20q45 0 71.5 22.5t26.5 64.5q0 34 -17 55t-63 29l-39 7q-75 14 -111.5 47t-36.5 100q0 39 12 67.5t34 47
t52.5 27t66.5 8.5q58 0 97.5 -20.5t68.5 -59.5l-49 -45q-17 24 -45 42.5t-72 18.5q-91 0 -91 -83q0 -38 19.5 -55.5t63.5 -25.5l39 -7q79 -14 112 -49t33 -95q0 -71 -39 -112.5t-114 -46.5l-11 -59h8q5 7 13 11.5t23 4.5q58 0 58 -70q0 -21 -8.5 -36.5t-22.5 -26
t-32.5 -15.5t-38.5 -5z" />
    <glyph glyph-name="Scaron" unicode="&#x160;" horiz-adv-x="525" 
d="M261 -12q-75 0 -131 31.5t-93 87.5l58 48q32 -47 72 -72.5t94 -25.5q142 0 142 133q0 54 -26 82t-90 44l-52 13q-92 23 -135.5 67.5t-43.5 125.5q0 93 58 140.5t154 47.5q73 0 122.5 -27t86.5 -85l-59 -42q-27 42 -61.5 63.5t-91.5 21.5q-64 0 -97.5 -28t-33.5 -91
q0 -51 27.5 -77t88.5 -41l52 -13q49 -12 83 -28.5t55.5 -40.5t31 -56.5t9.5 -75.5q0 -99 -58.5 -150.5t-161.5 -51.5zM215 769l-101 144l41 30l106 -118l106 118l41 -30l-101 -144h-92z" />
    <glyph glyph-name="scaron" unicode="&#x161;" horiz-adv-x="439" 
d="M219 -12q-64 0 -109.5 26t-77.5 72l53 44q27 -38 58.5 -58t75.5 -20q45 0 71.5 22.5t26.5 64.5q0 34 -17 55t-63 29l-39 7q-75 14 -111.5 47t-36.5 100q0 39 12 67.5t34 47t52.5 27t66.5 8.5q58 0 97.5 -20.5t68.5 -59.5l-49 -45q-17 24 -45 42.5t-72 18.5q-91 0 -91 -83
q0 -38 19.5 -55.5t63.5 -25.5l39 -7q79 -14 112 -49t33 -95q0 -75 -43.5 -117.5t-128.5 -42.5zM170 599l-101 144l41 30l106 -118l106 118l41 -30l-101 -144h-92z" />
    <glyph glyph-name="Tcommaaccent" unicode="&#x162;" horiz-adv-x="516" 
d="M298 628v-628h-80v628h-197v70h474v-70h-197zM258 -68q50 0 50 -40v-18q0 -35 -17 -66t-40 -54h-54q20 23 32.5 40.5t18.5 40.5q-20 2 -30 12t-10 27v18q0 40 50 40z" />
    <glyph glyph-name="tcommaaccent" unicode="&#x163;" horiz-adv-x="318" 
d="M180 0q-41 0 -59.5 18.5t-18.5 59.5v371h-76v67h45q23 0 30.5 11.5t7.5 34.5v96h69v-142h100v-67h-100v-382h95v-67h-93zM193 -68q50 0 50 -40v-18q0 -35 -17 -66t-40 -54h-54q20 23 32.5 40.5t18.5 40.5q-20 2 -30 12t-10 27v18q0 40 50 40z" />
    <glyph glyph-name="Tcaron" unicode="&#x164;" horiz-adv-x="516" 
d="M298 628v-628h-80v628h-197v70h474v-70h-197zM213 769l-101 144l41 30l106 -118l106 118l41 -30l-101 -144h-92z" />
    <glyph glyph-name="tcaron" unicode="&#x165;" horiz-adv-x="318" 
d="M180 0q-41 0 -59.5 18.5t-18.5 59.5v371h-76v67h45q23 0 30.5 11.5t7.5 34.5v96h69v-142h100v-67h-100v-382h95v-67h-93zM284 566h-51l11 185h87z" />
    <glyph glyph-name="Tbar" unicode="&#x166;" horiz-adv-x="516" 
d="M298 342v-342h-80v342h-144v60h144v226h-197v70h474v-70h-197v-226h144v-60h-144z" />
    <glyph glyph-name="tbar" unicode="&#x167;" horiz-adv-x="323" 
d="M273 0h-93q-41 0 -59.5 18.5t-18.5 59.5v175h-56v56h56v140h-76v67h45q23 0 30.5 11.5t7.5 34.5v96h69v-142h100v-67h-100v-140h85v-56h-85v-186h95v-67z" />
    <glyph glyph-name="Utilde" unicode="&#x168;" horiz-adv-x="611" 
d="M158 698v-452q0 -47 7.5 -82t24.5 -58.5t45.5 -35t69.5 -11.5q82 0 114.5 46.5t32.5 140.5v452h80v-436q0 -70 -12 -121.5t-38.5 -85.5t-70 -50.5t-106.5 -16.5t-106.5 16.5t-70 50.5t-38.5 85.5t-12 121.5v436h80zM371 784q-17 0 -33 6t-41 20q-23 14 -37 19.5t-25 5.5
q-15 0 -27 -7.5t-26 -20.5l-30 38q32 52 85 52q17 0 33 -6t41 -20q23 -14 37 -19.5t25 -5.5q15 0 27 7.5t26 20.5l30 -38q-32 -52 -85 -52z" />
    <glyph glyph-name="utilde" unicode="&#x169;" horiz-adv-x="513" 
d="M361 84h-10q-15 -48 -46.5 -72t-85.5 -24q-69 0 -108.5 47t-39.5 145v336h76v-331q0 -62 25.5 -95t78.5 -33q46 0 78 28t32 79v352h76v-516h-76v84zM323 613q-17 0 -33 6t-41 20q-23 14 -37 19.5t-25 5.5q-15 0 -27 -7.5t-26 -20.5l-30 38q32 52 85 52q17 0 33 -6t41 -20
q23 -14 37 -19.5t25 -5.5q15 0 27 7.5t26 20.5l30 -38q-32 -52 -85 -52z" />
    <glyph glyph-name="Umacron" unicode="&#x16a;" horiz-adv-x="611" 
d="M158 698v-452q0 -47 7.5 -82t24.5 -58.5t45.5 -35t69.5 -11.5q82 0 114.5 46.5t32.5 140.5v452h80v-436q0 -70 -12 -121.5t-38.5 -85.5t-70 -50.5t-106.5 -16.5t-106.5 16.5t-70 50.5t-38.5 85.5t-12 121.5v436h80zM177 873h254v-64h-254v64z" />
    <glyph glyph-name="umacron" unicode="&#x16b;" horiz-adv-x="513" 
d="M361 84h-10q-15 -48 -46.5 -72t-85.5 -24q-69 0 -108.5 47t-39.5 145v336h76v-331q0 -62 25.5 -95t78.5 -33q46 0 78 28t32 79v352h76v-516h-76v84zM129 703h254v-64h-254v64z" />
    <glyph glyph-name="Ubreve" unicode="&#x16c;" horiz-adv-x="611" 
d="M158 698v-452q0 -47 7.5 -82t24.5 -58.5t45.5 -35t69.5 -11.5q82 0 114.5 46.5t32.5 140.5v452h80v-436q0 -70 -12 -121.5t-38.5 -85.5t-70 -50.5t-106.5 -16.5t-106.5 16.5t-70 50.5t-38.5 85.5t-12 121.5v436h80zM304 766q-53 0 -87 30t-54 96l43 21l18 -33
q15 -29 33 -40.5t47 -11.5t47 11.5t33 40.5l18 33l43 -21q-20 -66 -54 -96t-87 -30z" />
    <glyph glyph-name="ubreve" unicode="&#x16d;" horiz-adv-x="513" 
d="M361 84h-10q-15 -48 -46.5 -72t-85.5 -24q-69 0 -108.5 47t-39.5 145v336h76v-331q0 -62 25.5 -95t78.5 -33q46 0 78 28t32 79v352h76v-516h-76v84zM256 596q-53 0 -87 30t-54 96l43 21l18 -33q15 -29 33 -40.5t47 -11.5t47 11.5t33 40.5l18 33l43 -21q-20 -66 -54 -96
t-87 -30z" />
    <glyph glyph-name="Uring" unicode="&#x16e;" horiz-adv-x="611" 
d="M158 698v-452q0 -47 7.5 -82t24.5 -58.5t45.5 -35t69.5 -11.5q82 0 114.5 46.5t32.5 140.5v452h80v-436q0 -70 -12 -121.5t-38.5 -85.5t-70 -50.5t-106.5 -16.5t-106.5 16.5t-70 50.5t-38.5 85.5t-12 121.5v436h80zM304 746q-51 0 -80.5 32t-29.5 83t29.5 83t80.5 32
t80.5 -32t29.5 -83t-29.5 -83t-80.5 -32zM304 793q25 0 39.5 13t14.5 38v34q0 25 -14.5 38t-39.5 13t-39.5 -13t-14.5 -38v-34q0 -25 14.5 -38t39.5 -13z" />
    <glyph glyph-name="uring" unicode="&#x16f;" horiz-adv-x="513" 
d="M361 84h-10q-15 -48 -46.5 -72t-85.5 -24q-69 0 -108.5 47t-39.5 145v336h76v-331q0 -62 25.5 -95t78.5 -33q46 0 78 28t32 79v352h76v-516h-76v84zM256 576q-51 0 -80.5 32t-29.5 83t29.5 83t80.5 32t80.5 -32t29.5 -83t-29.5 -83t-80.5 -32zM256 623q25 0 39.5 13
t14.5 38v34q0 25 -14.5 38t-39.5 13t-39.5 -13t-14.5 -38v-34q0 -25 14.5 -38t39.5 -13z" />
    <glyph glyph-name="Uhungarumlaut" unicode="&#x170;" horiz-adv-x="611" 
d="M158 698v-452q0 -47 7.5 -82t24.5 -58.5t45.5 -35t69.5 -11.5q82 0 114.5 46.5t32.5 140.5v452h80v-436q0 -70 -12 -121.5t-38.5 -85.5t-70 -50.5t-106.5 -16.5t-106.5 16.5t-70 50.5t-38.5 85.5t-12 121.5v436h80zM237 756l-45 24l77 170l65 -35zM384 756l-45 24l77 170
l65 -35z" />
    <glyph glyph-name="uhungarumlaut" unicode="&#x171;" horiz-adv-x="513" 
d="M361 84h-10q-15 -48 -46.5 -72t-85.5 -24q-69 0 -108.5 47t-39.5 145v336h76v-331q0 -62 25.5 -95t78.5 -33q46 0 78 28t32 79v352h76v-516h-76v84zM189 585l-45 24l77 170l65 -35zM336 585l-45 24l77 170l65 -35z" />
    <glyph glyph-name="Uogonek" unicode="&#x172;" horiz-adv-x="611" 
d="M158 698v-452q0 -47 7.5 -82t24.5 -58.5t45.5 -35t69.5 -11.5q82 0 114.5 46.5t32.5 140.5v452h80v-436q0 -77 -15 -131.5t-50 -91.5q-39 -42 -61.5 -68.5t-34 -43.5t-14.5 -28t-3 -21q0 -32 36 -32q29 0 45 22l35 -36q-10 -15 -32.5 -27t-51.5 -12q-45 0 -70 18.5
t-25 50.5q0 15 4 28.5t15 28t30 32t50 41.5l-1 6q-34 -10 -84 -10q-63 0 -106.5 16.5t-70 50.5t-38.5 85.5t-12 121.5v436h80z" />
    <glyph glyph-name="uogonek" unicode="&#x173;" horiz-adv-x="513" 
d="M457 -168q-10 -15 -32.5 -27t-51.5 -12q-41 0 -68 17t-27 52q0 42 32 73.5t78 55.5l-3 9h-24v84h-10q-15 -48 -46.5 -72t-85.5 -24q-69 0 -108.5 47t-39.5 145v336h76v-331q0 -62 25.5 -95t78.5 -33q46 0 78 28t32 79v352h76v-516q-53 -38 -74.5 -64.5t-21.5 -55.5
q0 -18 10.5 -26t25.5 -8q29 0 45 22l35 -36v0z" />
    <glyph glyph-name="Wcircumflex" unicode="&#x174;" horiz-adv-x="808" 
d="M172 0l-153 698h83l94 -451l25 -167h10l25 167l95 451h108l95 -451l25 -167h10l25 167l94 451h81l-159 -698h-100l-96 451l-25 177h-10l-25 -177l-102 -451h-100zM450 935l101 -144l-41 -30l-106 118l-106 -118l-41 30l101 144h92z" />
    <glyph glyph-name="wcircumflex" unicode="&#x175;" horiz-adv-x="698" 
d="M27 516h74l50 -224l44 -225h10l51 225l52 224h88l52 -224l51 -225h10l44 225l50 224h72l-124 -516h-96l-63 250l-35 189h-10l-37 -189l-63 -250h-96zM398 765l101 -144l-41 -30l-106 118l-106 -118l-41 30l101 144h92z" />
    <glyph glyph-name="Ycircumflex" unicode="&#x176;" horiz-adv-x="534" 
d="M227 0v276l-216 422h91l161 -332h10l161 332h89l-216 -422v-276h-80zM316 935l101 -144l-41 -30l-106 118l-106 -118l-41 30l101 144h92z" />
    <glyph glyph-name="ycircumflex" unicode="&#x177;" horiz-adv-x="451" 
d="M356 516h74l-204 -648q-6 -20 -13 -33.5t-17.5 -21t-25 -10.5t-36.5 -3h-56v67h79l30 105l-171 544h76l79 -260l48 -189h10l48 189zM273 765l101 -144l-41 -30l-106 118l-106 -118l-41 30l101 144h92z" />
    <glyph glyph-name="Ydieresis" unicode="&#x178;" horiz-adv-x="534" 
d="M227 0v276l-216 422h91l161 -332h10l161 332h89l-216 -422v-276h-80zM184 792q-50 0 -50 40v18q0 40 50 40t50 -40v-18q0 -40 -50 -40zM356 792q-50 0 -50 40v18q0 40 50 40t50 -40v-18q0 -40 -50 -40z" />
    <glyph glyph-name="Zacute" unicode="&#x179;" horiz-adv-x="524" 
d="M491 0h-458v72l359 556h-343v70h430v-72l-359 -556h371v-70zM276 755l-49 25l77 169l69 -36z" />
    <glyph glyph-name="zacute" unicode="&#x17a;" horiz-adv-x="421" 
d="M30 0v58l263 391h-255v67h345v-58l-263 -391h271v-67h-361zM218 585l-49 25l77 169l69 -36z" />
    <glyph glyph-name="Zdotaccent" unicode="&#x17b;" horiz-adv-x="524" 
d="M491 0h-458v72l359 556h-343v70h430v-72l-359 -556h371v-70zM269 792q-50 0 -50 40v18q0 40 50 40t50 -40v-18q0 -40 -50 -40z" />
    <glyph glyph-name="zdotaccent" unicode="&#x17c;" horiz-adv-x="421" 
d="M30 0v58l263 391h-255v67h345v-58l-263 -391h271v-67h-361zM211 618q-50 0 -50 40v18q0 40 50 40t50 -40v-18q0 -40 -50 -40z" />
    <glyph glyph-name="Zcaron" unicode="&#x17d;" horiz-adv-x="524" 
d="M491 0h-458v72l359 556h-343v70h430v-72l-359 -556h371v-70zM223 769l-101 144l41 30l106 -118l106 118l41 -30l-101 -144h-92z" />
    <glyph glyph-name="zcaron" unicode="&#x17e;" horiz-adv-x="421" 
d="M30 0v58l263 391h-255v67h345v-58l-263 -391h271v-67h-361zM165 599l-101 144l41 30l106 -118l106 118l41 -30l-101 -144h-92z" />
    <glyph glyph-name="uni018F" unicode="&#x18f;" horiz-adv-x="638" 
d="M319 -12q-127 0 -197 87t-70 274v20h451v58q0 97 -48.5 154.5t-135.5 57.5q-69 0 -111 -35.5t-62 -101.5l-68 30q12 39 32.5 71.5t50.5 56t69.5 37t88.5 13.5q127 0 197 -87t70 -274t-70 -274t-197 -87zM135 271q0 -97 48.5 -154.5t135.5 -57.5t135.5 57.5t48.5 154.5v33
h-368v-33z" />
    <glyph glyph-name="florin" unicode="&#x192;" horiz-adv-x="436" 
d="M6 -67h127l33 371h-127l8 70h125l21 231q2 26 8 43.5t18 28.5t31 16t47 5h119l-8 -67h-136l-23 -257h150l-8 -70h-148l-31 -345q-2 -26 -8.5 -43.5t-18.5 -28.5t-30.5 -16t-46.5 -5h-110z" />
    <glyph glyph-name="Ohorn" unicode="&#x1a0;" horiz-adv-x="638" 
d="M591 810v-103q0 -36 -12 -48t-48 -12h-96v-8q80 -19 115.5 -88.5t35.5 -201.5q0 -187 -70 -274t-197 -87t-197 87t-70 274t70 274t197 87q48 0 87 -12h119v112h66zM319 59q87 0 134 57.5t47 154.5v156q0 97 -47 154.5t-134 57.5t-134 -57.5t-47 -154.5v-156
q0 -97 47 -154.5t134 -57.5z" />
    <glyph glyph-name="ohorn" unicode="&#x1a1;" horiz-adv-x="504" 
d="M469 628v-103q0 -36 -12 -48t-48 -12h-56v-8q57 -13 83.5 -63t26.5 -136q0 -72 -16 -123t-44 -84t-67 -48t-84 -15t-84 15t-67 48t-44 84t-16 123t16 123t44 84t67 48t84 15q41 0 76 -12h75v112h66zM252 56q62 0 95.5 37t33.5 113v104q0 76 -33.5 113t-95.5 37t-95.5 -37
t-33.5 -113v-104q0 -76 33.5 -113t95.5 -37z" />
    <glyph glyph-name="Uhorn" unicode="&#x1af;" horiz-adv-x="617" 
d="M532 262q0 -70 -12 -121.5t-38.5 -85.5t-70 -50.5t-106.5 -16.5t-106.5 16.5t-70 50.5t-38.5 85.5t-12 121.5v436h80v-452q0 -47 7.5 -82t24.5 -58.5t45.5 -35t69.5 -11.5q82 0 114.5 46.5t32.5 140.5v452h85v112h66v-103q0 -36 -12 -48t-48 -12h-11v-385v0z" />
    <glyph glyph-name="uhorn" unicode="&#x1b0;" horiz-adv-x="519" 
d="M351 84q-15 -48 -46.5 -72t-85.5 -24q-69 0 -108.5 47t-39.5 145v336h76v-331q0 -62 25.5 -95t78.5 -33q46 0 78 28t32 79v352h84v112h66v-103q0 -36 -12 -48t-48 -12h-14v-465h-76v84h-10v0z" />
    <glyph glyph-name="Aringacute" unicode="&#x1fa;" horiz-adv-x="579" 
d="M476 0l-62 209h-251l-62 -209h-80l218 698h100l219 -698h-82zM315 540l-22 87h-10l-22 -87l-79 -265h214zM300 984l-38 26l71 116l55 -36zM291 736q-51 0 -80.5 32t-29.5 83t29.5 83t80.5 32t80.5 -32t29.5 -83t-29.5 -83t-80.5 -32zM291 783q25 0 39.5 13t14.5 38v34
q0 25 -14.5 38t-39.5 13t-39.5 -13t-14.5 -38v-34q0 -25 14.5 -38t39.5 -13z" />
    <glyph glyph-name="aringacute" unicode="&#x1fb;" horiz-adv-x="483" 
d="M402 0q-74 0 -74 74v10h-10q-13 -47 -47.5 -71.5t-82.5 -24.5q-75 0 -112 38t-37 112q0 72 47.5 114t148.5 42h93v57q0 57 -25.5 84t-80.5 27q-45 0 -72.5 -19.5t-47.5 -56.5l-45 42q20 42 64 70.5t104 28.5q88 0 133.5 -42.5t45.5 -125.5v-292h52v-67h-54zM207 54
q26 0 48.5 9t38.5 23.5t25 33t9 38.5v78h-95q-60 0 -87.5 -20t-27.5 -58v-28q0 -39 24 -57.5t65 -18.5zM238 814l-38 26l71 116l55 -36zM229 566q-51 0 -80.5 32t-29.5 83t29.5 83t80.5 32t80.5 -32t29.5 -83t-29.5 -83t-80.5 -32zM229 613q25 0 39.5 13t14.5 38v34
q0 25 -14.5 38t-39.5 13t-39.5 -13t-14.5 -38v-34q0 -25 14.5 -38t39.5 -13z" />
    <glyph glyph-name="AEacute" unicode="&#x1fc;" horiz-adv-x="820" 
d="M377 208h-200l-92 -208h-82l320 698h440v-70h-306v-240h287v-70h-287v-248h306v-70h-386v208zM364 628l-157 -354h170v354h-13zM538 755l-49 25l77 169l69 -36z" />
    <glyph glyph-name="aeacute" unicode="&#x1fd;" horiz-adv-x="782" 
d="M233 238q-60 0 -87.5 -21t-27.5 -59v-28q0 -39 24 -57.5t65 -18.5q26 0 49 9t40 23.5t27 33t10 38.5v80h-100zM659 296v14q0 154 -120 154q-62 0 -96 -39t-34 -115v-14h250zM539 55q52 0 85 22.5t52 67.5l52 -38q-24 -53 -70.5 -86t-118.5 -33q-30 0 -57 9t-48.5 24.5
t-36.5 37t-21 47.5h-10q-6 -26 -22 -47.5t-39 -37t-53 -24.5t-64 -9q-75 0 -112 38t-37 112q0 73 47.5 115.5t148.5 42.5h98v52q0 114 -111 114q-45 0 -72.5 -19.5t-47.5 -56.5l-45 42q20 42 64 70.5t104 28.5t98 -31.5t47 -85.5h10q6 25 20.5 47t35.5 37.5t47.5 24.5
t55.5 9q45 0 82.5 -15t63.5 -48t40.5 -84.5t14.5 -123.5v-19h-331v-32q0 -76 34.5 -113.5t95.5 -37.5zM386 585l-49 25l77 169l69 -36z" />
    <glyph glyph-name="Oslashacute" unicode="&#x1fe;" horiz-adv-x="638" 
d="M319 -12q-95 0 -158 48l-50 -80l-53 36l57 92q-31 45 -47 110.5t-16 154.5q0 187 70 274t197 87q95 0 158 -48l50 80l53 -36l-57 -92q31 -45 47 -110.5t16 -154.5q0 -187 -70 -274t-197 -87zM163 151l156 259l119 186q-46 43 -119 43q-87 0 -134 -57.5t-47 -154.5v-186
l14 -90h11zM200 102q46 -43 119 -43q87 0 134 57.5t47 154.5v186l-14 90h-11l-156 -259zM326 755l-49 25l77 169l69 -36z" />
    <glyph glyph-name="oslashacute" unicode="&#x1ff;" horiz-adv-x="504" 
d="M252 -12q-38 0 -72 11t-60 34l-51 -69l-44 32l58 79q-20 32 -31 77.5t-11 105.5q0 72 16 123t44 84t67 48t84 15q38 0 72 -11t60 -34l51 69l44 -32l-58 -79q20 -32 31 -77.5t11 -105.5q0 -72 -16 -123t-44 -84t-67 -48t-84 -15zM130 131l56 81l158 215q-33 33 -92 33
q-62 0 -95.5 -37t-33.5 -113v-95l-2 -84h9zM160 89q33 -33 92 -33q62 0 95.5 37t33.5 113v95l2 84h-9l-56 -81zM260 585l-49 25l77 169l69 -36z" />
    <glyph glyph-name="Scommaaccent" unicode="&#x218;" horiz-adv-x="525" 
d="M261 -12q-75 0 -131 31.5t-93 87.5l58 48q32 -47 72 -72.5t94 -25.5q142 0 142 133q0 54 -26 82t-90 44l-52 13q-92 23 -135.5 67.5t-43.5 125.5q0 93 58 140.5t154 47.5q73 0 122.5 -27t86.5 -85l-59 -42q-27 42 -61.5 63.5t-91.5 21.5q-64 0 -97.5 -28t-33.5 -91
q0 -51 27.5 -77t88.5 -41l52 -13q49 -12 83 -28.5t55.5 -40.5t31 -56.5t9.5 -75.5q0 -99 -58.5 -150.5t-161.5 -51.5zM260 -68q50 0 50 -40v-18q0 -35 -17 -66t-40 -54h-54q20 23 32.5 40.5t18.5 40.5q-20 2 -30 12t-10 27v18q0 40 50 40z" />
    <glyph glyph-name="scommaaccent" unicode="&#x219;" horiz-adv-x="439" 
d="M219 -12q-64 0 -109.5 26t-77.5 72l53 44q27 -38 58.5 -58t75.5 -20q45 0 71.5 22.5t26.5 64.5q0 34 -17 55t-63 29l-39 7q-75 14 -111.5 47t-36.5 100q0 39 12 67.5t34 47t52.5 27t66.5 8.5q58 0 97.5 -20.5t68.5 -59.5l-49 -45q-17 24 -45 42.5t-72 18.5q-91 0 -91 -83
q0 -38 19.5 -55.5t63.5 -25.5l39 -7q79 -14 112 -49t33 -95q0 -75 -43.5 -117.5t-128.5 -42.5zM217 -68q50 0 50 -40v-18q0 -35 -17 -66t-40 -54h-54q20 23 32.5 40.5t18.5 40.5q-20 2 -30 12t-10 27v18q0 40 50 40z" />
    <glyph glyph-name="uni021A" unicode="&#x21a;" horiz-adv-x="516" 
d="M298 628v-628h-80v628h-197v70h474v-70h-197zM258 -68q50 0 50 -40v-18q0 -35 -17 -66t-40 -54h-54q20 23 32.5 40.5t18.5 40.5q-20 2 -30 12t-10 27v18q0 40 50 40z" />
    <glyph glyph-name="uni021B" unicode="&#x21b;" horiz-adv-x="318" 
d="M180 0q-41 0 -59.5 18.5t-18.5 59.5v371h-76v67h45q23 0 30.5 11.5t7.5 34.5v96h69v-142h100v-67h-100v-382h95v-67h-93zM193 -68q50 0 50 -40v-18q0 -35 -17 -66t-40 -54h-54q20 23 32.5 40.5t18.5 40.5q-20 2 -30 12t-10 27v18q0 40 50 40z" />
    <glyph glyph-name="uni0237" unicode="&#x237;" horiz-adv-x="228" 
d="M0 -133h76v649h76v-618q0 -51 -23.5 -74.5t-74.5 -23.5h-54v67z" />
    <glyph glyph-name="uni0259" unicode="&#x259;" horiz-adv-x="495" 
d="M373 277v33q0 76 -34.5 113.5t-95.5 37.5q-52 0 -85 -22.5t-52 -67.5l-52 38q24 53 70.5 86t118.5 33q45 0 84 -15t67 -48t44 -84t16 -123t-16 -123t-44 -84t-67 -48t-84 -15t-82.5 15t-63.5 48t-40.5 84t-14.5 123v19h331zM123 206q0 -154 120 -154q62 0 96 39t34 115
v13h-250v-13z" />
    <glyph glyph-name="uni02BB" unicode="&#x2bb;" 
d="M270 596q-50 0 -50 40v18q0 35 17 66t40 54h54q-20 -23 -32.5 -40.5t-18.5 -40.5q20 -2 30 -12t10 -27v-18q0 -40 -50 -40z" />
    <glyph glyph-name="uni02BC" unicode="&#x2bc;" 
d="M322 555h-51l11 185h87z" />
    <glyph glyph-name="circumflex" unicode="&#x2c6;" 
d="M316 765l101 -144l-41 -30l-106 118l-106 -118l-41 30l101 144h92z" />
    <glyph glyph-name="caron" unicode="&#x2c7;" 
d="M224 599l-101 144l41 30l106 -118l106 118l41 -30l-101 -144h-92z" />
    <glyph glyph-name="breve" unicode="&#x2d8;" 
d="M270 596q-53 0 -87 30t-54 96l43 21l18 -33q15 -29 33 -40.5t47 -11.5t47 11.5t33 40.5l18 33l43 -21q-20 -66 -54 -96t-87 -30z" />
    <glyph glyph-name="dotaccent" unicode="&#x2d9;" 
d="M270 618q-50 0 -50 40v18q0 40 50 40t50 -40v-18q0 -40 -50 -40z" />
    <glyph glyph-name="ring" unicode="&#x2da;" 
d="M270 576q-51 0 -80.5 32t-29.5 83t29.5 83t80.5 32t80.5 -32t29.5 -83t-29.5 -83t-80.5 -32zM270 623q25 0 39.5 13t14.5 38v34q0 25 -14.5 38t-39.5 13t-39.5 -13t-14.5 -38v-34q0 -25 14.5 -38t39.5 -13z" />
    <glyph glyph-name="ogonek" unicode="&#x2db;" 
d="M206 -207q-41 0 -68 17t-27 52q0 42 32 73.5t78 55.5v31h40l9 -22q-53 -38 -74.5 -64.5t-21.5 -55.5q0 -18 10.5 -26t25.5 -8q29 0 45 22l35 -36q-10 -15 -32.5 -27t-51.5 -12z" />
    <glyph glyph-name="tilde" unicode="&#x2dc;" 
d="M337 613q-17 0 -33 6t-41 20q-23 14 -37 19.5t-25 5.5q-15 0 -27 -7.5t-26 -20.5l-30 38q32 52 85 52q17 0 33 -6t41 -20q23 -14 37 -19.5t25 -5.5q15 0 27 7.5t26 20.5l30 -38q-32 -52 -85 -52z" />
    <glyph glyph-name="hungarumlaut" unicode="&#x2dd;" 
d="M203 585l-45 24l77 170l65 -35zM350 585l-45 24l77 170l65 -35z" />
    <glyph glyph-name="uni0300" unicode="&#x300;" horiz-adv-x="0" 
d="M-103 743l69 36l77 -169l-49 -25z" />
    <glyph glyph-name="uni0301" unicode="&#x301;" horiz-adv-x="0" 
d="M8 585l-49 25l77 169l69 -36z" />
    <glyph glyph-name="uni0302" unicode="&#x302;" horiz-adv-x="0" 
d="M47 765l101 -144l-41 -30l-106 118l-106 -118l-41 30l101 144h92z" />
    <glyph glyph-name="uni0303" unicode="&#x303;" horiz-adv-x="0" 
d="M68 613q-17 0 -33 6t-41 20q-23 14 -37 19.5t-25 5.5q-15 0 -27 -7.5t-26 -20.5l-30 38q32 52 85 52q17 0 33 -6t41 -20q23 -14 37 -19.5t25 -5.5q15 0 27 7.5t26 20.5l30 -38q-32 -52 -85 -52z" />
    <glyph glyph-name="uni0304" unicode="&#x304;" horiz-adv-x="0" 
d="M-126 703h254v-64h-254v64z" />
    <glyph glyph-name="uni0306" unicode="&#x306;" horiz-adv-x="0" 
d="M1 596q-53 0 -87 30t-54 96l43 21l18 -33q15 -29 33 -40.5t47 -11.5t47 11.5t33 40.5l18 33l43 -21q-20 -66 -54 -96t-87 -30z" />
    <glyph glyph-name="uni0307" unicode="&#x307;" horiz-adv-x="0" 
d="M1 618q-50 0 -50 40v18q0 40 50 40t50 -40v-18q0 -40 -50 -40z" />
    <glyph glyph-name="uni0308" unicode="&#x308;" horiz-adv-x="0" 
d="M-85 620q-50 0 -50 40v18q0 40 50 40t50 -40v-18q0 -40 -50 -40zM87 620q-50 0 -50 40v18q0 40 50 40t50 -40v-18q0 -40 -50 -40z" />
    <glyph glyph-name="uni0309" unicode="&#x309;" horiz-adv-x="0" 
d="M-78 765h106q59 0 59 -52q0 -21 -8.5 -45.5t-28.5 -50.5l-29 -40l-43 23l50 103h-106v62z" />
    <glyph glyph-name="uni030A" unicode="&#x30a;" horiz-adv-x="0" 
d="M1 576q-51 0 -80.5 32t-29.5 83t29.5 83t80.5 32t80.5 -32t29.5 -83t-29.5 -83t-80.5 -32zM1 623q25 0 39.5 13t14.5 38v34q0 25 -14.5 38t-39.5 13t-39.5 -13t-14.5 -38v-34q0 -25 14.5 -38t39.5 -13z" />
    <glyph glyph-name="uni030B" unicode="&#x30b;" horiz-adv-x="0" 
d="M-66 585l-45 24l77 170l65 -35zM81 585l-45 24l77 170l65 -35z" />
    <glyph glyph-name="uni030C" unicode="&#x30c;" horiz-adv-x="0" 
d="M-45 599l-101 144l41 30l106 -118l106 118l41 -30l-101 -144h-92z" />
    <glyph glyph-name="uni0312" unicode="&#x312;" horiz-adv-x="0" 
d="M1 596q-50 0 -50 40v18q0 35 17 66t40 54h54q-20 -23 -32.5 -40.5t-18.5 -40.5q20 -2 30 -12t10 -27v-18q0 -40 -50 -40z" />
    <glyph glyph-name="uni0315" unicode="&#x315;" horiz-adv-x="0" 
d="M53 555h-51l11 185h87z" />
    <glyph glyph-name="uni031B" unicode="&#x31b;" horiz-adv-x="0" 
d="M72 525q0 -36 -12 -48t-48 -12h-84v51h78v112h66v-103z" />
    <glyph glyph-name="uni0323" unicode="&#x323;" horiz-adv-x="0" 
d="M0 -166q-50 0 -50 40v18q0 40 50 40t50 -40v-18q0 -40 -50 -40z" />
    <glyph glyph-name="uni0326" unicode="&#x326;" horiz-adv-x="0" 
d="M0 -68q50 0 50 -40v-18q0 -35 -17 -66t-40 -54h-54q20 23 32.5 40.5t18.5 40.5q-20 2 -30 12t-10 27v18q0 40 50 40z" />
    <glyph glyph-name="uni0327" unicode="&#x327;" horiz-adv-x="0" 
d="M11 -207q-38 0 -59.5 13.5t-32.5 27.5l35 39q10 -11 23.5 -19.5t33.5 -8.5q42 0 42 34t-42 34h-49l18 97h46l-15 -80h8q5 7 13 11.5t23 4.5q58 0 58 -70q0 -21 -8.5 -36.5t-22.5 -26t-32.5 -15.5t-38.5 -5z" />
    <glyph glyph-name="uni0328" unicode="&#x328;" horiz-adv-x="0" 
d="M-63 -207q-41 0 -68 17t-27 52q0 42 32 73.5t78 55.5v31h40l9 -22q-53 -38 -74.5 -64.5t-21.5 -55.5q0 -18 10.5 -26t25.5 -8q29 0 45 22l35 -36q-10 -15 -32.5 -27t-51.5 -12z" />
    <glyph glyph-name="pi" unicode="&#x3c0;" horiz-adv-x="563" 
d="M450 67h78v-67h-76q-41 0 -59.5 18.5t-18.5 59.5v371h-194v-449h-76v449h-78v67h502v-67h-78v-382z" />
    <glyph glyph-name="uni0E3F" unicode="&#xe3f;" horiz-adv-x="581" 
d="M317 -82h-64v103h-170v656h170v103h64v-103h20q80 0 123 -40.5t43 -128.5q0 -69 -29.5 -102t-80.5 -40v-8q60 -4 96 -38t36 -109q0 -92 -44.5 -141t-117.5 -49h-46v-103zM255 392v217h-94v-217h94zM315 392h23q44 0 63.5 20.5t19.5 63.5v49q0 43 -19.5 63.5t-63.5 20.5
h-23v-217zM255 89v237h-94v-237h94zM315 89h27q47 0 74 22t27 69v55q0 47 -27 69t-74 22h-27v-237z" />
    <glyph glyph-name="Wgrave" unicode="&#x1e80;" horiz-adv-x="808" 
d="M172 0l-153 698h83l94 -451l25 -167h10l25 167l95 451h108l95 -451l25 -167h10l25 167l94 451h81l-159 -698h-100l-96 451l-25 177h-10l-25 -177l-102 -451h-100zM300 913l69 36l77 -169l-49 -25z" />
    <glyph glyph-name="wgrave" unicode="&#x1e81;" horiz-adv-x="698" 
d="M27 516h74l50 -224l44 -225h10l51 225l52 224h88l52 -224l51 -225h10l44 225l50 224h72l-124 -516h-96l-63 250l-35 189h-10l-37 -189l-63 -250h-96zM248 743l69 36l77 -169l-49 -25z" />
    <glyph glyph-name="Wacute" unicode="&#x1e82;" horiz-adv-x="808" 
d="M172 0l-153 698h83l94 -451l25 -167h10l25 167l95 451h108l95 -451l25 -167h10l25 167l94 451h81l-159 -698h-100l-96 451l-25 177h-10l-25 -177l-102 -451h-100zM411 755l-49 25l77 169l69 -36z" />
    <glyph glyph-name="wacute" unicode="&#x1e83;" horiz-adv-x="698" 
d="M27 516h74l50 -224l44 -225h10l51 225l52 224h88l52 -224l51 -225h10l44 225l50 224h72l-124 -516h-96l-63 250l-35 189h-10l-37 -189l-63 -250h-96zM359 585l-49 25l77 169l69 -36z" />
    <glyph glyph-name="Wdieresis" unicode="&#x1e84;" horiz-adv-x="808" 
d="M172 0l-153 698h83l94 -451l25 -167h10l25 167l95 451h108l95 -451l25 -167h10l25 167l94 451h81l-159 -698h-100l-96 451l-25 177h-10l-25 -177l-102 -451h-100zM318 792q-50 0 -50 40v18q0 40 50 40t50 -40v-18q0 -40 -50 -40zM490 792q-50 0 -50 40v18q0 40 50 40
t50 -40v-18q0 -40 -50 -40z" />
    <glyph glyph-name="wdieresis" unicode="&#x1e85;" horiz-adv-x="698" 
d="M27 516h74l50 -224l44 -225h10l51 225l52 224h88l52 -224l51 -225h10l44 225l50 224h72l-124 -516h-96l-63 250l-35 189h-10l-37 -189l-63 -250h-96zM266 620q-50 0 -50 40v18q0 40 50 40t50 -40v-18q0 -40 -50 -40zM438 620q-50 0 -50 40v18q0 40 50 40t50 -40v-18
q0 -40 -50 -40z" />
    <glyph glyph-name="uni1E9E" unicode="&#x1e9e;" horiz-adv-x="632" 
d="M586 195q0 -105 -53.5 -156t-144.5 -51q-64 0 -107 21.5t-72 72.5l54 46q22 -37 52 -55t73 -18q55 0 84.5 28.5t29.5 76.5v70q0 48 -32.5 76t-88.5 28h-75v74l159 220h-302v-628h-80v698h463v-78l-157 -212v-8q42 0 78 -13.5t62.5 -39.5t41.5 -64t15 -88z" />
    <glyph glyph-name="uni1EA0" unicode="&#x1ea0;" horiz-adv-x="579" 
d="M476 0l-62 209h-251l-62 -209h-80l218 698h100l219 -698h-82zM315 540l-22 87h-10l-22 -87l-79 -265h214zM291 -166q-50 0 -50 40v18q0 40 50 40t50 -40v-18q0 -40 -50 -40z" />
    <glyph glyph-name="uni1EA1" unicode="&#x1ea1;" horiz-adv-x="483" 
d="M402 0q-74 0 -74 74v10h-10q-13 -47 -47.5 -71.5t-82.5 -24.5q-75 0 -112 38t-37 112q0 72 47.5 114t148.5 42h93v57q0 57 -25.5 84t-80.5 27q-45 0 -72.5 -19.5t-47.5 -56.5l-45 42q20 42 64 70.5t104 28.5q88 0 133.5 -42.5t45.5 -125.5v-292h52v-67h-54zM207 54
q26 0 48.5 9t38.5 23.5t25 33t9 38.5v78h-95q-60 0 -87.5 -20t-27.5 -58v-28q0 -39 24 -57.5t65 -18.5zM222 -166q-50 0 -50 40v18q0 40 50 40t50 -40v-18q0 -40 -50 -40z" />
    <glyph glyph-name="uni1EA2" unicode="&#x1ea2;" horiz-adv-x="579" 
d="M476 0l-62 209h-251l-62 -209h-80l218 698h100l219 -698h-82zM315 540l-22 87h-10l-22 -87l-79 -265h214zM213 935h106q59 0 59 -52q0 -21 -8.5 -45.5t-28.5 -50.5l-29 -40l-43 23l50 103h-106v62z" />
    <glyph glyph-name="uni1EA3" unicode="&#x1ea3;" horiz-adv-x="483" 
d="M402 0q-74 0 -74 74v10h-10q-13 -47 -47.5 -71.5t-82.5 -24.5q-75 0 -112 38t-37 112q0 72 47.5 114t148.5 42h93v57q0 57 -25.5 84t-80.5 27q-45 0 -72.5 -19.5t-47.5 -56.5l-45 42q20 42 64 70.5t104 28.5q88 0 133.5 -42.5t45.5 -125.5v-292h52v-67h-54zM207 54
q26 0 48.5 9t38.5 23.5t25 33t9 38.5v78h-95q-60 0 -87.5 -20t-27.5 -58v-28q0 -39 24 -57.5t65 -18.5zM150 765h106q59 0 59 -52q0 -21 -8.5 -45.5t-28.5 -50.5l-29 -40l-43 23l50 103h-106v62z" />
    <glyph glyph-name="uni1EA4" unicode="&#x1ea4;" horiz-adv-x="579" 
d="M476 0l-62 209h-251l-62 -209h-80l218 698h100l219 -698h-82zM315 540l-22 87h-10l-22 -87l-79 -265h214zM435 868l-49 25l77 169l69 -36zM337 915l102 -134l-40 -30l-108 108l-108 -108l-40 30l102 134h92z" />
    <glyph glyph-name="uni1EA5" unicode="&#x1ea5;" horiz-adv-x="483" 
d="M402 0q-74 0 -74 74v10h-10q-13 -47 -47.5 -71.5t-82.5 -24.5q-75 0 -112 38t-37 112q0 72 47.5 114t148.5 42h93v57q0 57 -25.5 84t-80.5 27q-45 0 -72.5 -19.5t-47.5 -56.5l-45 42q20 42 64 70.5t104 28.5q88 0 133.5 -42.5t45.5 -125.5v-292h52v-67h-54zM207 54
q26 0 48.5 9t38.5 23.5t25 33t9 38.5v78h-95q-60 0 -87.5 -20t-27.5 -58v-28q0 -39 24 -57.5t65 -18.5zM372 698l-49 25l77 169l69 -36zM274 745l102 -134l-40 -30l-108 108l-108 -108l-40 30l102 134h92z" />
    <glyph glyph-name="uni1EA6" unicode="&#x1ea6;" horiz-adv-x="579" 
d="M476 0l-62 209h-251l-62 -209h-80l218 698h100l219 -698h-82zM315 540l-22 87h-10l-22 -87l-79 -265h214zM50 1026l69 36l77 -169l-49 -25zM337 915l102 -134l-40 -30l-108 108l-108 -108l-40 30l102 134h92z" />
    <glyph glyph-name="uni1EA7" unicode="&#x1ea7;" horiz-adv-x="483" 
d="M402 0q-74 0 -74 74v10h-10q-13 -47 -47.5 -71.5t-82.5 -24.5q-75 0 -112 38t-37 112q0 72 47.5 114t148.5 42h93v57q0 57 -25.5 84t-80.5 27q-45 0 -72.5 -19.5t-47.5 -56.5l-45 42q20 42 64 70.5t104 28.5q88 0 133.5 -42.5t45.5 -125.5v-292h52v-67h-54zM207 54
q26 0 48.5 9t38.5 23.5t25 33t9 38.5v78h-95q-60 0 -87.5 -20t-27.5 -58v-28q0 -39 24 -57.5t65 -18.5zM-13 856l69 36l77 -169l-49 -25zM274 745l102 -134l-40 -30l-108 108l-108 -108l-40 30l102 134h92z" />
    <glyph glyph-name="uni1EA8" unicode="&#x1ea8;" horiz-adv-x="579" 
d="M476 0l-62 209h-251l-62 -209h-80l218 698h100l219 -698h-82zM315 540l-22 87h-10l-22 -87l-79 -265h214zM349 1050h94q59 0 59 -52q0 -21 -8.5 -45.5t-28.5 -50.5l-29 -40l-41 22l51 106h-97v60zM337 915l102 -134l-40 -30l-108 108l-108 -108l-40 30l102 134h92z" />
    <glyph glyph-name="uni1EA9" unicode="&#x1ea9;" horiz-adv-x="483" 
d="M402 0q-74 0 -74 74v10h-10q-13 -47 -47.5 -71.5t-82.5 -24.5q-75 0 -112 38t-37 112q0 72 47.5 114t148.5 42h93v57q0 57 -25.5 84t-80.5 27q-45 0 -72.5 -19.5t-47.5 -56.5l-45 42q20 42 64 70.5t104 28.5q88 0 133.5 -42.5t45.5 -125.5v-292h52v-67h-54zM207 54
q26 0 48.5 9t38.5 23.5t25 33t9 38.5v78h-95q-60 0 -87.5 -20t-27.5 -58v-28q0 -39 24 -57.5t65 -18.5zM286 880h94q59 0 59 -52q0 -21 -8.5 -45.5t-28.5 -50.5l-29 -40l-41 22l51 106h-97v60zM274 745l102 -134l-40 -30l-108 108l-108 -108l-40 30l102 134h92z" />
    <glyph glyph-name="uni1EAA" unicode="&#x1eaa;" horiz-adv-x="579" 
d="M476 0l-62 209h-251l-62 -209h-80l218 698h100l219 -698h-82zM315 540l-22 87h-10l-22 -87l-79 -265h214zM226 1053q23 0 40.5 -9t31.5 -17q21 -13 35 -19t25 -6q15 0 27 7.5t26 20.5l30 -38q-12 -20 -32.5 -36t-52.5 -16q-23 0 -40.5 9t-31.5 17q-21 13 -35 19t-25 6
q-15 0 -27 -7.5t-26 -20.5l-30 38q12 20 32.5 36t52.5 16zM337 915l102 -134l-40 -30l-108 108l-108 -108l-40 30l102 134h92z" />
    <glyph glyph-name="uni1EAB" unicode="&#x1eab;" horiz-adv-x="483" 
d="M402 0q-74 0 -74 74v10h-10q-13 -47 -47.5 -71.5t-82.5 -24.5q-75 0 -112 38t-37 112q0 72 47.5 114t148.5 42h93v57q0 57 -25.5 84t-80.5 27q-45 0 -72.5 -19.5t-47.5 -56.5l-45 42q20 42 64 70.5t104 28.5q88 0 133.5 -42.5t45.5 -125.5v-292h52v-67h-54zM207 54
q26 0 48.5 9t38.5 23.5t25 33t9 38.5v78h-95q-60 0 -87.5 -20t-27.5 -58v-28q0 -39 24 -57.5t65 -18.5zM163 883q23 0 40.5 -9t31.5 -17q21 -13 35 -19t25 -6q15 0 27 7.5t26 20.5l30 -38q-12 -20 -32.5 -36t-52.5 -16q-23 0 -40.5 9t-31.5 17q-21 13 -35 19t-25 6
q-15 0 -27 -7.5t-26 -20.5l-30 38q12 20 32.5 36t52.5 16zM274 745l102 -134l-40 -30l-108 108l-108 -108l-40 30l102 134h92z" />
    <glyph glyph-name="uni1EAC" unicode="&#x1eac;" horiz-adv-x="579" 
d="M476 0l-62 209h-251l-62 -209h-80l218 698h100l219 -698h-82zM315 540l-22 87h-10l-22 -87l-79 -265h214zM337 935l101 -144l-41 -30l-106 118l-106 -118l-41 30l101 144h92zM291 -166q-50 0 -50 40v18q0 40 50 40t50 -40v-18q0 -40 -50 -40z" />
    <glyph glyph-name="uni1EAD" unicode="&#x1ead;" horiz-adv-x="483" 
d="M402 0q-74 0 -74 74v10h-10q-13 -47 -47.5 -71.5t-82.5 -24.5q-75 0 -112 38t-37 112q0 72 47.5 114t148.5 42h93v57q0 57 -25.5 84t-80.5 27q-45 0 -72.5 -19.5t-47.5 -56.5l-45 42q20 42 64 70.5t104 28.5q88 0 133.5 -42.5t45.5 -125.5v-292h52v-67h-54zM207 54
q26 0 48.5 9t38.5 23.5t25 33t9 38.5v78h-95q-60 0 -87.5 -20t-27.5 -58v-28q0 -39 24 -57.5t65 -18.5zM275 765l101 -144l-41 -30l-106 118l-106 -118l-41 30l101 144h92zM222 -166q-50 0 -50 40v18q0 40 50 40t50 -40v-18q0 -40 -50 -40z" />
    <glyph glyph-name="uni1EAE" unicode="&#x1eae;" horiz-adv-x="579" 
d="M476 0l-62 209h-251l-62 -209h-80l218 698h100l219 -698h-82zM315 540l-22 87h-10l-22 -87l-79 -265h214zM291 756q-36 0 -60 12t-40 31t-25.5 41t-15.5 43l42 21l18 -33q12 -23 30.5 -41t50.5 -18t50.5 18t30.5 41l18 33l42 -21q-6 -21 -15.5 -43t-25.5 -41t-40 -31
t-60 -12zM294 869l-46 23l83 170l65 -32z" />
    <glyph glyph-name="uni1EAF" unicode="&#x1eaf;" horiz-adv-x="483" 
d="M402 0q-74 0 -74 74v10h-10q-13 -47 -47.5 -71.5t-82.5 -24.5q-75 0 -112 38t-37 112q0 72 47.5 114t148.5 42h93v57q0 57 -25.5 84t-80.5 27q-45 0 -72.5 -19.5t-47.5 -56.5l-45 42q20 42 64 70.5t104 28.5q88 0 133.5 -42.5t45.5 -125.5v-292h52v-67h-54zM207 54
q26 0 48.5 9t38.5 23.5t25 33t9 38.5v78h-95q-60 0 -87.5 -20t-27.5 -58v-28q0 -39 24 -57.5t65 -18.5zM228 585q-36 0 -60 12t-40 31t-25.5 41t-15.5 43l42 21l18 -33q12 -23 30.5 -41t50.5 -18t50.5 18t30.5 41l18 33l42 -21q-6 -21 -15.5 -43t-25.5 -41t-40 -31t-60 -12z
M231 698l-46 23l83 170l65 -32z" />
    <glyph glyph-name="uni1EB0" unicode="&#x1eb0;" horiz-adv-x="579" 
d="M476 0l-62 209h-251l-62 -209h-80l218 698h100l219 -698h-82zM315 540l-22 87h-10l-22 -87l-79 -265h214zM291 756q-36 0 -60 12t-40 31t-25.5 41t-15.5 43l42 21l18 -33q12 -23 30.5 -41t50.5 -18t50.5 18t30.5 41l18 33l42 -21q-6 -21 -15.5 -43t-25.5 -41t-40 -31
t-60 -12zM186 1030l65 32l83 -170l-46 -23z" />
    <glyph glyph-name="uni1EB1" unicode="&#x1eb1;" horiz-adv-x="483" 
d="M402 0q-74 0 -74 74v10h-10q-13 -47 -47.5 -71.5t-82.5 -24.5q-75 0 -112 38t-37 112q0 72 47.5 114t148.5 42h93v57q0 57 -25.5 84t-80.5 27q-45 0 -72.5 -19.5t-47.5 -56.5l-45 42q20 42 64 70.5t104 28.5q88 0 133.5 -42.5t45.5 -125.5v-292h52v-67h-54zM207 54
q26 0 48.5 9t38.5 23.5t25 33t9 38.5v78h-95q-60 0 -87.5 -20t-27.5 -58v-28q0 -39 24 -57.5t65 -18.5zM228 585q-36 0 -60 12t-40 31t-25.5 41t-15.5 43l42 21l18 -33q12 -23 30.5 -41t50.5 -18t50.5 18t30.5 41l18 33l42 -21q-6 -21 -15.5 -43t-25.5 -41t-40 -31t-60 -12z
M123 859l65 32l83 -170l-46 -23z" />
    <glyph glyph-name="uni1EB2" unicode="&#x1eb2;" horiz-adv-x="579" 
d="M476 0l-62 209h-251l-62 -209h-80l218 698h100l219 -698h-82zM315 540l-22 87h-10l-22 -87l-79 -265h214zM209 1051h94q59 0 59 -52q0 -21 -8.5 -45.5t-28.5 -50.5l-29 -40l-41 22l51 106h-97v60zM291 756q-36 0 -60 12t-40 31t-25.5 41t-15.5 43l42 21l18 -33
q12 -23 30.5 -41t50.5 -18t50.5 18t30.5 41l18 33l42 -21q-6 -21 -15.5 -43t-25.5 -41t-40 -31t-60 -12z" />
    <glyph glyph-name="uni1EB3" unicode="&#x1eb3;" horiz-adv-x="483" 
d="M402 0q-74 0 -74 74v10h-10q-13 -47 -47.5 -71.5t-82.5 -24.5q-75 0 -112 38t-37 112q0 72 47.5 114t148.5 42h93v57q0 57 -25.5 84t-80.5 27q-45 0 -72.5 -19.5t-47.5 -56.5l-45 42q20 42 64 70.5t104 28.5q88 0 133.5 -42.5t45.5 -125.5v-292h52v-67h-54zM207 54
q26 0 48.5 9t38.5 23.5t25 33t9 38.5v78h-95q-60 0 -87.5 -20t-27.5 -58v-28q0 -39 24 -57.5t65 -18.5zM228 585q-36 0 -60 12t-40 31t-25.5 41t-15.5 43l42 21l18 -33q12 -23 30.5 -41t50.5 -18t50.5 18t30.5 41l18 33l42 -21q-6 -21 -15.5 -43t-25.5 -41t-40 -31t-60 -12z
M146 880h94q59 0 59 -52q0 -21 -8.5 -45.5t-28.5 -50.5l-29 -40l-41 22l51 106h-97v60z" />
    <glyph glyph-name="uni1EB4" unicode="&#x1eb4;" horiz-adv-x="579" 
d="M476 0l-62 209h-251l-62 -209h-80l218 698h100l219 -698h-82zM315 540l-22 87h-10l-22 -87l-79 -265h214zM356 941q-23 0 -40.5 9t-31.5 17q-21 13 -35 19t-25 6q-15 0 -27 -7.5t-26 -20.5l-30 38q12 20 32.5 36t52.5 16q23 0 40.5 -9t31.5 -17q21 -13 35 -19t25 -6
q15 0 27 7.5t26 20.5l30 -38q-12 -20 -32.5 -36t-52.5 -16zM291 756q-36 0 -60 12t-40 31t-25.5 41t-15.5 43l42 21l18 -33q12 -23 30.5 -41t50.5 -18t50.5 18t30.5 41l18 33l42 -21q-6 -21 -15.5 -43t-25.5 -41t-40 -31t-60 -12z" />
    <glyph glyph-name="uni1EB5" unicode="&#x1eb5;" horiz-adv-x="483" 
d="M402 0q-74 0 -74 74v10h-10q-13 -47 -47.5 -71.5t-82.5 -24.5q-75 0 -112 38t-37 112q0 72 47.5 114t148.5 42h93v57q0 57 -25.5 84t-80.5 27q-45 0 -72.5 -19.5t-47.5 -56.5l-45 42q20 42 64 70.5t104 28.5q88 0 133.5 -42.5t45.5 -125.5v-292h52v-67h-54zM207 54
q26 0 48.5 9t38.5 23.5t25 33t9 38.5v78h-95q-60 0 -87.5 -20t-27.5 -58v-28q0 -39 24 -57.5t65 -18.5zM228 585q-36 0 -60 12t-40 31t-25.5 41t-15.5 43l42 21l18 -33q12 -23 30.5 -41t50.5 -18t50.5 18t30.5 41l18 33l42 -21q-6 -21 -15.5 -43t-25.5 -41t-40 -31t-60 -12z
M293 770q-23 0 -40.5 9t-31.5 17q-21 13 -35 19t-25 6q-15 0 -27 -7.5t-26 -20.5l-30 38q12 20 32.5 36t52.5 16q23 0 40.5 -9t31.5 -17q21 -13 35 -19t25 -6q15 0 27 7.5t26 20.5l30 -38q-12 -20 -32.5 -36t-52.5 -16z" />
    <glyph glyph-name="uni1EB6" unicode="&#x1eb6;" horiz-adv-x="579" 
d="M476 0l-62 209h-251l-62 -209h-80l218 698h100l219 -698h-82zM315 540l-22 87h-10l-22 -87l-79 -265h214zM291 766q-53 0 -87 30t-54 96l43 21l18 -33q15 -29 33 -40.5t47 -11.5t47 11.5t33 40.5l18 33l43 -21q-20 -66 -54 -96t-87 -30zM291 -166q-50 0 -50 40v18
q0 40 50 40t50 -40v-18q0 -40 -50 -40z" />
    <glyph glyph-name="uni1EB7" unicode="&#x1eb7;" horiz-adv-x="483" 
d="M402 0q-74 0 -74 74v10h-10q-13 -47 -47.5 -71.5t-82.5 -24.5q-75 0 -112 38t-37 112q0 72 47.5 114t148.5 42h93v57q0 57 -25.5 84t-80.5 27q-45 0 -72.5 -19.5t-47.5 -56.5l-45 42q20 42 64 70.5t104 28.5q88 0 133.5 -42.5t45.5 -125.5v-292h52v-67h-54zM207 54
q26 0 48.5 9t38.5 23.5t25 33t9 38.5v78h-95q-60 0 -87.5 -20t-27.5 -58v-28q0 -39 24 -57.5t65 -18.5zM229 596q-53 0 -87 30t-54 96l43 21l18 -33q15 -29 33 -40.5t47 -11.5t47 11.5t33 40.5l18 33l43 -21q-20 -66 -54 -96t-87 -30zM222 -166q-50 0 -50 40v18q0 40 50 40
t50 -40v-18q0 -40 -50 -40z" />
    <glyph glyph-name="uni1EB8" unicode="&#x1eb8;" horiz-adv-x="526" 
d="M83 0v698h386v-70h-306v-240h287v-70h-287v-248h306v-70h-386zM274 -166q-50 0 -50 40v18q0 40 50 40t50 -40v-18q0 -40 -50 -40z" />
    <glyph glyph-name="uni1EB9" unicode="&#x1eb9;" horiz-adv-x="495" 
d="M252 -12q-45 0 -84 15t-67 48t-44 84t-16 123t16 123t44 84t67 48t84 15t82.5 -15t63.5 -48t40.5 -84t14.5 -123v-19h-331v-33q0 -76 34.5 -113.5t95.5 -37.5q52 0 85 22.5t52 67.5l52 -38q-24 -53 -70.5 -86t-118.5 -33zM252 464q-62 0 -96 -39t-34 -115v-13h250v13
q0 154 -120 154zM255 -166q-50 0 -50 40v18q0 40 50 40t50 -40v-18q0 -40 -50 -40z" />
    <glyph glyph-name="uni1EBA" unicode="&#x1eba;" horiz-adv-x="526" 
d="M83 0v698h386v-70h-306v-240h287v-70h-287v-248h306v-70h-386zM196 935h106q59 0 59 -52q0 -21 -8.5 -45.5t-28.5 -50.5l-29 -40l-43 23l50 103h-106v62z" />
    <glyph glyph-name="uni1EBB" unicode="&#x1ebb;" horiz-adv-x="495" 
d="M252 -12q-45 0 -84 15t-67 48t-44 84t-16 123t16 123t44 84t67 48t84 15t82.5 -15t63.5 -48t40.5 -84t14.5 -123v-19h-331v-33q0 -76 34.5 -113.5t95.5 -37.5q52 0 85 22.5t52 67.5l52 -38q-24 -53 -70.5 -86t-118.5 -33zM252 464q-62 0 -96 -39t-34 -115v-13h250v13
q0 154 -120 154zM174 765h106q59 0 59 -52q0 -21 -8.5 -45.5t-28.5 -50.5l-29 -40l-43 23l50 103h-106v62z" />
    <glyph glyph-name="uni1EBC" unicode="&#x1ebc;" horiz-adv-x="526" 
d="M83 0v698h386v-70h-306v-240h287v-70h-287v-248h306v-70h-386zM341 784q-17 0 -33 6t-41 20q-23 14 -37 19.5t-25 5.5q-15 0 -27 -7.5t-26 -20.5l-30 38q32 52 85 52q17 0 33 -6t41 -20q23 -14 37 -19.5t25 -5.5q15 0 27 7.5t26 20.5l30 -38q-32 -52 -85 -52z" />
    <glyph glyph-name="uni1EBD" unicode="&#x1ebd;" horiz-adv-x="495" 
d="M252 -12q-45 0 -84 15t-67 48t-44 84t-16 123t16 123t44 84t67 48t84 15t82.5 -15t63.5 -48t40.5 -84t14.5 -123v-19h-331v-33q0 -76 34.5 -113.5t95.5 -37.5q52 0 85 22.5t52 67.5l52 -38q-24 -53 -70.5 -86t-118.5 -33zM252 464q-62 0 -96 -39t-34 -115v-13h250v13
q0 154 -120 154zM320 613q-17 0 -33 6t-41 20q-23 14 -37 19.5t-25 5.5q-15 0 -27 -7.5t-26 -20.5l-30 38q32 52 85 52q17 0 33 -6t41 -20q23 -14 37 -19.5t25 -5.5q15 0 27 7.5t26 20.5l30 -38q-32 -52 -85 -52z" />
    <glyph glyph-name="uni1EBE" unicode="&#x1ebe;" horiz-adv-x="526" 
d="M83 0v698h386v-70h-306v-240h287v-70h-287v-248h306v-70h-386zM418 868l-49 25l77 169l69 -36zM320 915l102 -134l-40 -30l-108 108l-108 -108l-40 30l102 134h92z" />
    <glyph glyph-name="uni1EBF" unicode="&#x1ebf;" horiz-adv-x="495" 
d="M252 -12q-45 0 -84 15t-67 48t-44 84t-16 123t16 123t44 84t67 48t84 15t82.5 -15t63.5 -48t40.5 -84t14.5 -123v-19h-331v-33q0 -76 34.5 -113.5t95.5 -37.5q52 0 85 22.5t52 67.5l52 -38q-24 -53 -70.5 -86t-118.5 -33zM252 464q-62 0 -96 -39t-34 -115v-13h250v13
q0 154 -120 154zM396 698l-49 25l77 169l69 -36zM298 745l102 -134l-40 -30l-108 108l-108 -108l-40 30l102 134h92z" />
    <glyph glyph-name="uni1EC0" unicode="&#x1ec0;" horiz-adv-x="526" 
d="M83 0v698h386v-70h-306v-240h287v-70h-287v-248h306v-70h-386zM33 1026l69 36l77 -169l-49 -25zM320 915l102 -134l-40 -30l-108 108l-108 -108l-40 30l102 134h92z" />
    <glyph glyph-name="uni1EC1" unicode="&#x1ec1;" horiz-adv-x="495" 
d="M252 -12q-45 0 -84 15t-67 48t-44 84t-16 123t16 123t44 84t67 48t84 15t82.5 -15t63.5 -48t40.5 -84t14.5 -123v-19h-331v-33q0 -76 34.5 -113.5t95.5 -37.5q52 0 85 22.5t52 67.5l52 -38q-24 -53 -70.5 -86t-118.5 -33zM252 464q-62 0 -96 -39t-34 -115v-13h250v13
q0 154 -120 154zM11 856l69 36l77 -169l-49 -25zM298 745l102 -134l-40 -30l-108 108l-108 -108l-40 30l102 134h92z" />
    <glyph glyph-name="uni1EC2" unicode="&#x1ec2;" horiz-adv-x="526" 
d="M83 0v698h386v-70h-306v-240h287v-70h-287v-248h306v-70h-386zM332 1050h94q59 0 59 -52q0 -21 -8.5 -45.5t-28.5 -50.5l-29 -40l-41 22l51 106h-97v60zM320 915l102 -134l-40 -30l-108 108l-108 -108l-40 30l102 134h92z" />
    <glyph glyph-name="uni1EC3" unicode="&#x1ec3;" horiz-adv-x="495" 
d="M252 -12q-45 0 -84 15t-67 48t-44 84t-16 123t16 123t44 84t67 48t84 15t82.5 -15t63.5 -48t40.5 -84t14.5 -123v-19h-331v-33q0 -76 34.5 -113.5t95.5 -37.5q52 0 85 22.5t52 67.5l52 -38q-24 -53 -70.5 -86t-118.5 -33zM252 464q-62 0 -96 -39t-34 -115v-13h250v13
q0 154 -120 154zM310 880h94q59 0 59 -52q0 -21 -8.5 -45.5t-28.5 -50.5l-29 -40l-41 22l51 106h-97v60zM298 745l102 -134l-40 -30l-108 108l-108 -108l-40 30l102 134h92z" />
    <glyph glyph-name="uni1EC4" unicode="&#x1ec4;" horiz-adv-x="526" 
d="M83 0v698h386v-70h-306v-240h287v-70h-287v-248h306v-70h-386zM209 1053q23 0 40.5 -9t31.5 -17q21 -13 35 -19t25 -6q15 0 27 7.5t26 20.5l30 -38q-12 -20 -32.5 -36t-52.5 -16q-23 0 -40.5 9t-31.5 17q-21 13 -35 19t-25 6q-15 0 -27 -7.5t-26 -20.5l-30 38
q12 20 32.5 36t52.5 16zM320 915l102 -134l-40 -30l-108 108l-108 -108l-40 30l102 134h92z" />
    <glyph glyph-name="uni1EC5" unicode="&#x1ec5;" horiz-adv-x="495" 
d="M252 -12q-45 0 -84 15t-67 48t-44 84t-16 123t16 123t44 84t67 48t84 15t82.5 -15t63.5 -48t40.5 -84t14.5 -123v-19h-331v-33q0 -76 34.5 -113.5t95.5 -37.5q52 0 85 22.5t52 67.5l52 -38q-24 -53 -70.5 -86t-118.5 -33zM252 464q-62 0 -96 -39t-34 -115v-13h250v13
q0 154 -120 154zM187 883q23 0 40.5 -9t31.5 -17q21 -13 35 -19t25 -6q15 0 27 7.5t26 20.5l30 -38q-12 -20 -32.5 -36t-52.5 -16q-23 0 -40.5 9t-31.5 17q-21 13 -35 19t-25 6q-15 0 -27 -7.5t-26 -20.5l-30 38q12 20 32.5 36t52.5 16zM298 745l102 -134l-40 -30l-108 108
l-108 -108l-40 30l102 134h92z" />
    <glyph glyph-name="uni1EC6" unicode="&#x1ec6;" horiz-adv-x="526" 
d="M83 0v698h386v-70h-306v-240h287v-70h-287v-248h306v-70h-386zM320 935l101 -144l-41 -30l-106 118l-106 -118l-41 30l101 144h92zM274 -166q-50 0 -50 40v18q0 40 50 40t50 -40v-18q0 -40 -50 -40z" />
    <glyph glyph-name="uni1EC7" unicode="&#x1ec7;" horiz-adv-x="495" 
d="M252 -12q-45 0 -84 15t-67 48t-44 84t-16 123t16 123t44 84t67 48t84 15t82.5 -15t63.5 -48t40.5 -84t14.5 -123v-19h-331v-33q0 -76 34.5 -113.5t95.5 -37.5q52 0 85 22.5t52 67.5l52 -38q-24 -53 -70.5 -86t-118.5 -33zM252 464q-62 0 -96 -39t-34 -115v-13h250v13
q0 154 -120 154zM299 765l101 -144l-41 -30l-106 118l-106 -118l-41 30l101 144h92zM255 -166q-50 0 -50 40v18q0 40 50 40t50 -40v-18q0 -40 -50 -40z" />
    <glyph glyph-name="uni1EC8" unicode="&#x1ec8;" horiz-adv-x="362" 
d="M53 0v66h88v566h-88v66h256v-66h-88v-566h88v-66h-256zM103 935h106q59 0 59 -52q0 -21 -8.5 -45.5t-28.5 -50.5l-29 -40l-43 23l50 103h-106v62z" />
    <glyph glyph-name="uni1EC9" unicode="&#x1ec9;" horiz-adv-x="228" 
d="M76 0v516h76v-516h-76zM36 765h106q59 0 59 -52q0 -21 -8.5 -45.5t-28.5 -50.5l-29 -40l-43 23l50 103h-106v62z" />
    <glyph glyph-name="uni1ECA" unicode="&#x1eca;" horiz-adv-x="362" 
d="M53 0v66h88v566h-88v66h256v-66h-88v-566h88v-66h-256zM181 -166q-50 0 -50 40v18q0 40 50 40t50 -40v-18q0 -40 -50 -40z" />
    <glyph glyph-name="uni1ECB" unicode="&#x1ecb;" horiz-adv-x="228" 
d="M114 641q-47 0 -47 41v16q0 41 47 41t47 -41v-16q0 -41 -47 -41zM76 516h76v-516h-76v516zM114 -166q-50 0 -50 40v18q0 40 50 40t50 -40v-18q0 -40 -50 -40z" />
    <glyph glyph-name="uni1ECC" unicode="&#x1ecc;" horiz-adv-x="638" 
d="M319 -12q-127 0 -197 87t-70 274t70 274t197 87t197 -87t70 -274t-70 -274t-197 -87zM319 59q87 0 134 57.5t47 154.5v156q0 97 -47 154.5t-134 57.5t-134 -57.5t-47 -154.5v-156q0 -97 47 -154.5t134 -57.5zM319 -166q-50 0 -50 40v18q0 40 50 40t50 -40v-18
q0 -40 -50 -40z" />
    <glyph glyph-name="uni1ECD" unicode="&#x1ecd;" horiz-adv-x="504" 
d="M252 -12q-45 0 -84 15t-67 48t-44 84t-16 123t16 123t44 84t67 48t84 15t84 -15t67 -48t44 -84t16 -123t-16 -123t-44 -84t-67 -48t-84 -15zM252 56q62 0 95.5 37t33.5 113v104q0 76 -33.5 113t-95.5 37t-95.5 -37t-33.5 -113v-104q0 -76 33.5 -113t95.5 -37zM252 -166
q-50 0 -50 40v18q0 40 50 40t50 -40v-18q0 -40 -50 -40z" />
    <glyph glyph-name="uni1ECE" unicode="&#x1ece;" horiz-adv-x="638" 
d="M319 -12q-127 0 -197 87t-70 274t70 274t197 87t197 -87t70 -274t-70 -274t-197 -87zM319 59q87 0 134 57.5t47 154.5v156q0 97 -47 154.5t-134 57.5t-134 -57.5t-47 -154.5v-156q0 -97 47 -154.5t134 -57.5zM241 935h106q59 0 59 -52q0 -21 -8.5 -45.5t-28.5 -50.5
l-29 -40l-43 23l50 103h-106v62z" />
    <glyph glyph-name="uni1ECF" unicode="&#x1ecf;" horiz-adv-x="504" 
d="M252 -12q-45 0 -84 15t-67 48t-44 84t-16 123t16 123t44 84t67 48t84 15t84 -15t67 -48t44 -84t16 -123t-16 -123t-44 -84t-67 -48t-84 -15zM252 56q62 0 95.5 37t33.5 113v104q0 76 -33.5 113t-95.5 37t-95.5 -37t-33.5 -113v-104q0 -76 33.5 -113t95.5 -37zM174 765
h106q59 0 59 -52q0 -21 -8.5 -45.5t-28.5 -50.5l-29 -40l-43 23l50 103h-106v62z" />
    <glyph glyph-name="uni1ED0" unicode="&#x1ed0;" horiz-adv-x="638" 
d="M319 -12q-127 0 -197 87t-70 274t70 274t197 87t197 -87t70 -274t-70 -274t-197 -87zM319 59q87 0 134 57.5t47 154.5v156q0 97 -47 154.5t-134 57.5t-134 -57.5t-47 -154.5v-156q0 -97 47 -154.5t134 -57.5zM463 868l-49 25l77 169l69 -36zM365 915l102 -134l-40 -30
l-108 108l-108 -108l-40 30l102 134h92z" />
    <glyph glyph-name="uni1ED1" unicode="&#x1ed1;" horiz-adv-x="504" 
d="M252 -12q-45 0 -84 15t-67 48t-44 84t-16 123t16 123t44 84t67 48t84 15t84 -15t67 -48t44 -84t16 -123t-16 -123t-44 -84t-67 -48t-84 -15zM252 56q62 0 95.5 37t33.5 113v104q0 76 -33.5 113t-95.5 37t-95.5 -37t-33.5 -113v-104q0 -76 33.5 -113t95.5 -37zM396 698
l-49 25l77 169l69 -36zM298 745l102 -134l-40 -30l-108 108l-108 -108l-40 30l102 134h92z" />
    <glyph glyph-name="uni1ED2" unicode="&#x1ed2;" horiz-adv-x="638" 
d="M319 -12q-127 0 -197 87t-70 274t70 274t197 87t197 -87t70 -274t-70 -274t-197 -87zM319 59q87 0 134 57.5t47 154.5v156q0 97 -47 154.5t-134 57.5t-134 -57.5t-47 -154.5v-156q0 -97 47 -154.5t134 -57.5zM78 1026l69 36l77 -169l-49 -25zM365 915l102 -134l-40 -30
l-108 108l-108 -108l-40 30l102 134h92z" />
    <glyph glyph-name="uni1ED3" unicode="&#x1ed3;" horiz-adv-x="504" 
d="M252 -12q-45 0 -84 15t-67 48t-44 84t-16 123t16 123t44 84t67 48t84 15t84 -15t67 -48t44 -84t16 -123t-16 -123t-44 -84t-67 -48t-84 -15zM252 56q62 0 95.5 37t33.5 113v104q0 76 -33.5 113t-95.5 37t-95.5 -37t-33.5 -113v-104q0 -76 33.5 -113t95.5 -37zM11 856
l69 36l77 -169l-49 -25zM298 745l102 -134l-40 -30l-108 108l-108 -108l-40 30l102 134h92z" />
    <glyph glyph-name="uni1ED4" unicode="&#x1ed4;" horiz-adv-x="638" 
d="M319 -12q-127 0 -197 87t-70 274t70 274t197 87t197 -87t70 -274t-70 -274t-197 -87zM319 59q87 0 134 57.5t47 154.5v156q0 97 -47 154.5t-134 57.5t-134 -57.5t-47 -154.5v-156q0 -97 47 -154.5t134 -57.5zM377 1050h94q59 0 59 -52q0 -21 -8.5 -45.5t-28.5 -50.5
l-29 -40l-41 22l51 106h-97v60zM365 915l102 -134l-40 -30l-108 108l-108 -108l-40 30l102 134h92z" />
    <glyph glyph-name="uni1ED5" unicode="&#x1ed5;" horiz-adv-x="504" 
d="M252 -12q-45 0 -84 15t-67 48t-44 84t-16 123t16 123t44 84t67 48t84 15t84 -15t67 -48t44 -84t16 -123t-16 -123t-44 -84t-67 -48t-84 -15zM252 56q62 0 95.5 37t33.5 113v104q0 76 -33.5 113t-95.5 37t-95.5 -37t-33.5 -113v-104q0 -76 33.5 -113t95.5 -37zM310 880h94
q59 0 59 -52q0 -21 -8.5 -45.5t-28.5 -50.5l-29 -40l-41 22l51 106h-97v60zM298 745l102 -134l-40 -30l-108 108l-108 -108l-40 30l102 134h92z" />
    <glyph glyph-name="uni1ED6" unicode="&#x1ed6;" horiz-adv-x="638" 
d="M319 -12q-127 0 -197 87t-70 274t70 274t197 87t197 -87t70 -274t-70 -274t-197 -87zM319 59q87 0 134 57.5t47 154.5v156q0 97 -47 154.5t-134 57.5t-134 -57.5t-47 -154.5v-156q0 -97 47 -154.5t134 -57.5zM254 1053q23 0 40.5 -9t31.5 -17q21 -13 35 -19t25 -6
q15 0 27 7.5t26 20.5l30 -38q-12 -20 -32.5 -36t-52.5 -16q-23 0 -40.5 9t-31.5 17q-21 13 -35 19t-25 6q-15 0 -27 -7.5t-26 -20.5l-30 38q12 20 32.5 36t52.5 16zM365 915l102 -134l-40 -30l-108 108l-108 -108l-40 30l102 134h92z" />
    <glyph glyph-name="uni1ED7" unicode="&#x1ed7;" horiz-adv-x="504" 
d="M252 -12q-45 0 -84 15t-67 48t-44 84t-16 123t16 123t44 84t67 48t84 15t84 -15t67 -48t44 -84t16 -123t-16 -123t-44 -84t-67 -48t-84 -15zM252 56q62 0 95.5 37t33.5 113v104q0 76 -33.5 113t-95.5 37t-95.5 -37t-33.5 -113v-104q0 -76 33.5 -113t95.5 -37zM187 883
q23 0 40.5 -9t31.5 -17q21 -13 35 -19t25 -6q15 0 27 7.5t26 20.5l30 -38q-12 -20 -32.5 -36t-52.5 -16q-23 0 -40.5 9t-31.5 17q-21 13 -35 19t-25 6q-15 0 -27 -7.5t-26 -20.5l-30 38q12 20 32.5 36t52.5 16zM298 745l102 -134l-40 -30l-108 108l-108 -108l-40 30l102 134
h92z" />
    <glyph glyph-name="uni1ED8" unicode="&#x1ed8;" horiz-adv-x="638" 
d="M319 -12q-127 0 -197 87t-70 274t70 274t197 87t197 -87t70 -274t-70 -274t-197 -87zM319 59q87 0 134 57.5t47 154.5v156q0 97 -47 154.5t-134 57.5t-134 -57.5t-47 -154.5v-156q0 -97 47 -154.5t134 -57.5zM365 935l101 -144l-41 -30l-106 118l-106 -118l-41 30
l101 144h92zM319 -166q-50 0 -50 40v18q0 40 50 40t50 -40v-18q0 -40 -50 -40z" />
    <glyph glyph-name="uni1ED9" unicode="&#x1ed9;" horiz-adv-x="504" 
d="M252 -12q-45 0 -84 15t-67 48t-44 84t-16 123t16 123t44 84t67 48t84 15t84 -15t67 -48t44 -84t16 -123t-16 -123t-44 -84t-67 -48t-84 -15zM252 56q62 0 95.5 37t33.5 113v104q0 76 -33.5 113t-95.5 37t-95.5 -37t-33.5 -113v-104q0 -76 33.5 -113t95.5 -37zM299 765
l101 -144l-41 -30l-106 118l-106 -118l-41 30l101 144h92zM252 -166q-50 0 -50 40v18q0 40 50 40t50 -40v-18q0 -40 -50 -40z" />
    <glyph glyph-name="uni1EDA" unicode="&#x1eda;" horiz-adv-x="638" 
d="M591 810v-103q0 -36 -12 -48t-48 -12h-96v-8q80 -19 115.5 -88.5t35.5 -201.5q0 -187 -70 -274t-197 -87t-197 87t-70 274t70 274t197 87q48 0 87 -12h119v112h66zM319 59q87 0 134 57.5t47 154.5v156q0 97 -47 154.5t-134 57.5t-134 -57.5t-47 -154.5v-156
q0 -97 47 -154.5t134 -57.5zM326 755l-49 25l77 169l69 -36z" />
    <glyph glyph-name="uni1EDB" unicode="&#x1edb;" horiz-adv-x="504" 
d="M469 628v-103q0 -36 -12 -48t-48 -12h-56v-8q57 -13 83.5 -63t26.5 -136q0 -72 -16 -123t-44 -84t-67 -48t-84 -15t-84 15t-67 48t-44 84t-16 123t16 123t44 84t67 48t84 15q41 0 76 -12h75v112h66zM252 56q62 0 95.5 37t33.5 113v104q0 76 -33.5 113t-95.5 37t-95.5 -37
t-33.5 -113v-104q0 -76 33.5 -113t95.5 -37zM260 585l-49 25l77 169l69 -36z" />
    <glyph glyph-name="uni1EDC" unicode="&#x1edc;" horiz-adv-x="638" 
d="M591 810v-103q0 -36 -12 -48t-48 -12h-96v-8q80 -19 115.5 -88.5t35.5 -201.5q0 -187 -70 -274t-197 -87t-197 87t-70 274t70 274t197 87q48 0 87 -12h119v112h66zM319 59q87 0 134 57.5t47 154.5v156q0 97 -47 154.5t-134 57.5t-134 -57.5t-47 -154.5v-156
q0 -97 47 -154.5t134 -57.5zM215 913l69 36l77 -169l-49 -25z" />
    <glyph glyph-name="uni1EDD" unicode="&#x1edd;" horiz-adv-x="504" 
d="M469 628v-103q0 -36 -12 -48t-48 -12h-56v-8q57 -13 83.5 -63t26.5 -136q0 -72 -16 -123t-44 -84t-67 -48t-84 -15t-84 15t-67 48t-44 84t-16 123t16 123t44 84t67 48t84 15q41 0 76 -12h75v112h66zM252 56q62 0 95.5 37t33.5 113v104q0 76 -33.5 113t-95.5 37t-95.5 -37
t-33.5 -113v-104q0 -76 33.5 -113t95.5 -37zM149 743l69 36l77 -169l-49 -25z" />
    <glyph glyph-name="uni1EDE" unicode="&#x1ede;" horiz-adv-x="638" 
d="M591 810v-103q0 -36 -12 -48t-48 -12h-96v-8q80 -19 115.5 -88.5t35.5 -201.5q0 -187 -70 -274t-197 -87t-197 87t-70 274t70 274t197 87q48 0 87 -12h119v112h66zM319 59q87 0 134 57.5t47 154.5v156q0 97 -47 154.5t-134 57.5t-134 -57.5t-47 -154.5v-156
q0 -97 47 -154.5t134 -57.5zM241 935h106q59 0 59 -52q0 -21 -8.5 -45.5t-28.5 -50.5l-29 -40l-43 23l50 103h-106v62z" />
    <glyph glyph-name="uni1EDF" unicode="&#x1edf;" horiz-adv-x="504" 
d="M469 628v-103q0 -36 -12 -48t-48 -12h-56v-8q57 -13 83.5 -63t26.5 -136q0 -72 -16 -123t-44 -84t-67 -48t-84 -15t-84 15t-67 48t-44 84t-16 123t16 123t44 84t67 48t84 15q41 0 76 -12h75v112h66zM252 56q62 0 95.5 37t33.5 113v104q0 76 -33.5 113t-95.5 37t-95.5 -37
t-33.5 -113v-104q0 -76 33.5 -113t95.5 -37zM174 765h106q59 0 59 -52q0 -21 -8.5 -45.5t-28.5 -50.5l-29 -40l-43 23l50 103h-106v62z" />
    <glyph glyph-name="uni1EE0" unicode="&#x1ee0;" horiz-adv-x="638" 
d="M591 810v-103q0 -36 -12 -48t-48 -12h-96v-8q80 -19 115.5 -88.5t35.5 -201.5q0 -187 -70 -274t-197 -87t-197 87t-70 274t70 274t197 87q48 0 87 -12h119v112h66zM319 59q87 0 134 57.5t47 154.5v156q0 97 -47 154.5t-134 57.5t-134 -57.5t-47 -154.5v-156
q0 -97 47 -154.5t134 -57.5zM375 789q-21 0 -35.5 6.5t-26.5 14.5q-17 11 -27.5 15.5t-23.5 4.5q-25 0 -51 -26l-29 38q31 51 81 51q21 0 35.5 -6.5t26.5 -14.5q17 -11 27.5 -15.5t23.5 -4.5q25 0 51 26l29 -38q-31 -51 -81 -51z" />
    <glyph glyph-name="uni1EE1" unicode="&#x1ee1;" horiz-adv-x="504" 
d="M469 628v-103q0 -36 -12 -48t-48 -12h-56v-8q57 -13 83.5 -63t26.5 -136q0 -72 -16 -123t-44 -84t-67 -48t-84 -15t-84 15t-67 48t-44 84t-16 123t16 123t44 84t67 48t84 15q41 0 76 -12h75v112h66zM252 56q62 0 95.5 37t33.5 113v104q0 76 -33.5 113t-95.5 37t-95.5 -37
t-33.5 -113v-104q0 -76 33.5 -113t95.5 -37zM309 618q-21 0 -35.5 6.5t-26.5 14.5q-17 11 -27.5 15.5t-23.5 4.5q-25 0 -51 -26l-29 38q31 51 81 51q21 0 35.5 -6.5t26.5 -14.5q17 -11 27.5 -15.5t23.5 -4.5q25 0 51 26l29 -38q-31 -51 -81 -51z" />
    <glyph glyph-name="uni1EE2" unicode="&#x1ee2;" horiz-adv-x="638" 
d="M591 810v-103q0 -36 -12 -48t-48 -12h-96v-8q80 -19 115.5 -88.5t35.5 -201.5q0 -187 -70 -274t-197 -87t-197 87t-70 274t70 274t197 87q48 0 87 -12h119v112h66zM319 59q87 0 134 57.5t47 154.5v156q0 97 -47 154.5t-134 57.5t-134 -57.5t-47 -154.5v-156
q0 -97 47 -154.5t134 -57.5zM319 -166q-50 0 -50 40v18q0 40 50 40t50 -40v-18q0 -40 -50 -40z" />
    <glyph glyph-name="uni1EE3" unicode="&#x1ee3;" horiz-adv-x="504" 
d="M469 628v-103q0 -36 -12 -48t-48 -12h-56v-8q57 -13 83.5 -63t26.5 -136q0 -72 -16 -123t-44 -84t-67 -48t-84 -15t-84 15t-67 48t-44 84t-16 123t16 123t44 84t67 48t84 15q41 0 76 -12h75v112h66zM252 56q62 0 95.5 37t33.5 113v104q0 76 -33.5 113t-95.5 37t-95.5 -37
t-33.5 -113v-104q0 -76 33.5 -113t95.5 -37zM252 -166q-50 0 -50 40v18q0 40 50 40t50 -40v-18q0 -40 -50 -40z" />
    <glyph glyph-name="uni1EE4" unicode="&#x1ee4;" horiz-adv-x="611" 
d="M158 698v-452q0 -47 7.5 -82t24.5 -58.5t45.5 -35t69.5 -11.5q82 0 114.5 46.5t32.5 140.5v452h80v-436q0 -70 -12 -121.5t-38.5 -85.5t-70 -50.5t-106.5 -16.5t-106.5 16.5t-70 50.5t-38.5 85.5t-12 121.5v436h80zM304 -166q-50 0 -50 40v18q0 40 50 40t50 -40v-18
q0 -40 -50 -40z" />
    <glyph glyph-name="uni1EE5" unicode="&#x1ee5;" horiz-adv-x="513" 
d="M361 84h-10q-15 -48 -46.5 -72t-85.5 -24q-69 0 -108.5 47t-39.5 145v336h76v-331q0 -62 25.5 -95t78.5 -33q46 0 78 28t32 79v352h76v-516h-76v84zM251 -166q-50 0 -50 40v18q0 40 50 40t50 -40v-18q0 -40 -50 -40z" />
    <glyph glyph-name="uni1EE6" unicode="&#x1ee6;" horiz-adv-x="611" 
d="M158 698v-452q0 -47 7.5 -82t24.5 -58.5t45.5 -35t69.5 -11.5q82 0 114.5 46.5t32.5 140.5v452h80v-436q0 -70 -12 -121.5t-38.5 -85.5t-70 -50.5t-106.5 -16.5t-106.5 16.5t-70 50.5t-38.5 85.5t-12 121.5v436h80zM226 935h106q59 0 59 -52q0 -21 -8.5 -45.5
t-28.5 -50.5l-29 -40l-43 23l50 103h-106v62z" />
    <glyph glyph-name="uni1EE7" unicode="&#x1ee7;" horiz-adv-x="513" 
d="M361 84h-10q-15 -48 -46.5 -72t-85.5 -24q-69 0 -108.5 47t-39.5 145v336h76v-331q0 -62 25.5 -95t78.5 -33q46 0 78 28t32 79v352h76v-516h-76v84zM177 765h106q59 0 59 -52q0 -21 -8.5 -45.5t-28.5 -50.5l-29 -40l-43 23l50 103h-106v62z" />
    <glyph glyph-name="uni1EE8" unicode="&#x1ee8;" horiz-adv-x="617" 
d="M532 262q0 -70 -12 -121.5t-38.5 -85.5t-70 -50.5t-106.5 -16.5t-106.5 16.5t-70 50.5t-38.5 85.5t-12 121.5v436h80v-452q0 -47 7.5 -82t24.5 -58.5t45.5 -35t69.5 -11.5q82 0 114.5 46.5t32.5 140.5v452h85v112h66v-103q0 -36 -12 -48t-48 -12h-11v-385v0zM311 755
l-49 25l77 169l69 -36z" />
    <glyph glyph-name="uni1EE9" unicode="&#x1ee9;" horiz-adv-x="519" 
d="M351 84q-15 -48 -46.5 -72t-85.5 -24q-69 0 -108.5 47t-39.5 145v336h76v-331q0 -62 25.5 -95t78.5 -33q46 0 78 28t32 79v352h84v112h66v-103q0 -36 -12 -48t-48 -12h-14v-465h-76v84h-10v0zM263 585l-49 25l77 169l69 -36z" />
    <glyph glyph-name="uni1EEA" unicode="&#x1eea;" horiz-adv-x="617" 
d="M532 262q0 -70 -12 -121.5t-38.5 -85.5t-70 -50.5t-106.5 -16.5t-106.5 16.5t-70 50.5t-38.5 85.5t-12 121.5v436h80v-452q0 -47 7.5 -82t24.5 -58.5t45.5 -35t69.5 -11.5q82 0 114.5 46.5t32.5 140.5v452h85v112h66v-103q0 -36 -12 -48t-48 -12h-11v-385v0zM200 913
l69 36l77 -169l-49 -25z" />
    <glyph glyph-name="uni1EEB" unicode="&#x1eeb;" horiz-adv-x="519" 
d="M351 84q-15 -48 -46.5 -72t-85.5 -24q-69 0 -108.5 47t-39.5 145v336h76v-331q0 -62 25.5 -95t78.5 -33q46 0 78 28t32 79v352h84v112h66v-103q0 -36 -12 -48t-48 -12h-14v-465h-76v84h-10v0zM152 743l69 36l77 -169l-49 -25z" />
    <glyph glyph-name="uni1EEC" unicode="&#x1eec;" horiz-adv-x="617" 
d="M532 262q0 -70 -12 -121.5t-38.5 -85.5t-70 -50.5t-106.5 -16.5t-106.5 16.5t-70 50.5t-38.5 85.5t-12 121.5v436h80v-452q0 -47 7.5 -82t24.5 -58.5t45.5 -35t69.5 -11.5q82 0 114.5 46.5t32.5 140.5v452h85v112h66v-103q0 -36 -12 -48t-48 -12h-11v-385v0zM226 935h106
q59 0 59 -52q0 -21 -8.5 -45.5t-28.5 -50.5l-29 -40l-43 23l50 103h-106v62z" />
    <glyph glyph-name="uni1EED" unicode="&#x1eed;" horiz-adv-x="519" 
d="M351 84q-15 -48 -46.5 -72t-85.5 -24q-69 0 -108.5 47t-39.5 145v336h76v-331q0 -62 25.5 -95t78.5 -33q46 0 78 28t32 79v352h84v112h66v-103q0 -36 -12 -48t-48 -12h-14v-465h-76v84h-10v0zM177 765h106q59 0 59 -52q0 -21 -8.5 -45.5t-28.5 -50.5l-29 -40l-43 23
l50 103h-106v62z" />
    <glyph glyph-name="uni1EEE" unicode="&#x1eee;" horiz-adv-x="617" 
d="M532 262q0 -70 -12 -121.5t-38.5 -85.5t-70 -50.5t-106.5 -16.5t-106.5 16.5t-70 50.5t-38.5 85.5t-12 121.5v436h80v-452q0 -47 7.5 -82t24.5 -58.5t45.5 -35t69.5 -11.5q82 0 114.5 46.5t32.5 140.5v452h85v112h66v-103q0 -36 -12 -48t-48 -12h-11v-385v0zM360 789
q-21 0 -35.5 6.5t-26.5 14.5q-17 11 -27.5 15.5t-23.5 4.5q-25 0 -51 -26l-29 38q31 51 81 51q21 0 35.5 -6.5t26.5 -14.5q17 -11 27.5 -15.5t23.5 -4.5q25 0 51 26l29 -38q-31 -51 -81 -51z" />
    <glyph glyph-name="uni1EEF" unicode="&#x1eef;" horiz-adv-x="519" 
d="M351 84q-15 -48 -46.5 -72t-85.5 -24q-69 0 -108.5 47t-39.5 145v336h76v-331q0 -62 25.5 -95t78.5 -33q46 0 78 28t32 79v352h84v112h66v-103q0 -36 -12 -48t-48 -12h-14v-465h-76v84h-10v0zM312 618q-21 0 -35.5 6.5t-26.5 14.5q-17 11 -27.5 15.5t-23.5 4.5
q-25 0 -51 -26l-29 38q31 51 81 51q21 0 35.5 -6.5t26.5 -14.5q17 -11 27.5 -15.5t23.5 -4.5q25 0 51 26l29 -38q-31 -51 -81 -51z" />
    <glyph glyph-name="uni1EF0" unicode="&#x1ef0;" horiz-adv-x="617" 
d="M532 262q0 -70 -12 -121.5t-38.5 -85.5t-70 -50.5t-106.5 -16.5t-106.5 16.5t-70 50.5t-38.5 85.5t-12 121.5v436h80v-452q0 -47 7.5 -82t24.5 -58.5t45.5 -35t69.5 -11.5q82 0 114.5 46.5t32.5 140.5v452h85v112h66v-103q0 -36 -12 -48t-48 -12h-11v-385v0zM304 -166
q-50 0 -50 40v18q0 40 50 40t50 -40v-18q0 -40 -50 -40z" />
    <glyph glyph-name="uni1EF1" unicode="&#x1ef1;" horiz-adv-x="513" 
d="M351 84q-15 -48 -46.5 -72t-85.5 -24q-69 0 -108.5 47t-39.5 145v336h76v-331q0 -62 25.5 -95t78.5 -33q46 0 78 28t32 79v352h84v112h66v-103q0 -36 -12 -48t-48 -12h-14v-465h-76v84h-10v0zM251 -166q-50 0 -50 40v18q0 40 50 40t50 -40v-18q0 -40 -50 -40z" />
    <glyph glyph-name="Ygrave" unicode="&#x1ef2;" horiz-adv-x="534" 
d="M227 0v276l-216 422h91l161 -332h10l161 332h89l-216 -422v-276h-80zM166 913l69 36l77 -169l-49 -25z" />
    <glyph glyph-name="ygrave" unicode="&#x1ef3;" horiz-adv-x="451" 
d="M356 516h74l-204 -648q-6 -20 -13 -33.5t-17.5 -21t-25 -10.5t-36.5 -3h-56v67h79l30 105l-171 544h76l79 -260l48 -189h10l48 189zM123 743l69 36l77 -169l-49 -25z" />
    <glyph glyph-name="uni1EF4" unicode="&#x1ef4;" horiz-adv-x="534" 
d="M227 0v276l-216 422h91l161 -332h10l161 332h89l-216 -422v-276h-80zM269 -166q-50 0 -50 40v18q0 40 50 40t50 -40v-18q0 -40 -50 -40z" />
    <glyph glyph-name="uni1EF5" unicode="&#x1ef5;" horiz-adv-x="451" 
d="M356 516h74l-204 -648q-6 -20 -13 -33.5t-17.5 -21t-25 -10.5t-36.5 -3h-56v67h79l30 105l-171 544h76l79 -260l48 -189h10l48 189zM355 -166q-50 0 -50 40v18q0 40 50 40t50 -40v-18q0 -40 -50 -40z" />
    <glyph glyph-name="uni1EF6" unicode="&#x1ef6;" horiz-adv-x="534" 
d="M227 0v276l-216 422h91l161 -332h10l161 332h89l-216 -422v-276h-80zM191 935h106q59 0 59 -52q0 -21 -8.5 -45.5t-28.5 -50.5l-29 -40l-43 23l50 103h-106v62z" />
    <glyph glyph-name="uni1EF7" unicode="&#x1ef7;" horiz-adv-x="451" 
d="M356 516h74l-204 -648q-6 -20 -13 -33.5t-17.5 -21t-25 -10.5t-36.5 -3h-56v67h79l30 105l-171 544h76l79 -260l48 -189h10l48 189zM148 765h106q59 0 59 -52q0 -21 -8.5 -45.5t-28.5 -50.5l-29 -40l-43 23l50 103h-106v62z" />
    <glyph glyph-name="uni1EF8" unicode="&#x1ef8;" horiz-adv-x="534" 
d="M227 0v276l-216 422h91l161 -332h10l161 332h89l-216 -422v-276h-80zM337 784q-17 0 -33 6t-41 20q-23 14 -37 19.5t-25 5.5q-15 0 -27 -7.5t-26 -20.5l-30 38q32 52 85 52q17 0 33 -6t41 -20q23 -14 37 -19.5t25 -5.5q15 0 27 7.5t26 20.5l30 -38q-32 -52 -85 -52z" />
    <glyph glyph-name="uni1EF9" unicode="&#x1ef9;" horiz-adv-x="451" 
d="M356 516h74l-204 -648q-6 -20 -13 -33.5t-17.5 -21t-25 -10.5t-36.5 -3h-56v67h79l30 105l-171 544h76l79 -260l48 -189h10l48 189zM294 613q-17 0 -33 6t-41 20q-23 14 -37 19.5t-25 5.5q-15 0 -27 -7.5t-26 -20.5l-30 38q32 52 85 52q17 0 33 -6t41 -20
q23 -14 37 -19.5t25 -5.5q15 0 27 7.5t26 20.5l30 -38q-32 -52 -85 -52z" />
    <glyph glyph-name="endash" unicode="&#x2013;" horiz-adv-x="528" 
d="M32 268v73h464v-73h-464z" />
    <glyph glyph-name="emdash" unicode="&#x2014;" horiz-adv-x="702" 
d="M32 268v73h638v-73h-638z" />
    <glyph glyph-name="quoteleft" unicode="&#x2018;" horiz-adv-x="248" 
d="M124 502q-59 0 -59 51v16q0 39 23.5 86.5t62.5 84.5h62q-27 -32 -44 -59.5t-25 -62.5q39 -9 39 -49v-16q0 -51 -59 -51z" />
    <glyph glyph-name="quoteright" unicode="&#x2019;" horiz-adv-x="248" 
d="M124 745q59 0 59 -51v-16q0 -39 -23.5 -86.5t-62.5 -84.5h-62q27 32 44 59.5t25 62.5q-39 9 -39 49v16q0 51 59 51z" />
    <glyph glyph-name="quotesinglbase" unicode="&#x201a;" horiz-adv-x="248" 
d="M124 122q59 0 59 -51v-16q0 -39 -23.5 -86.5t-62.5 -84.5h-62q27 32 44 59.5t25 62.5q-39 9 -39 49v16q0 51 59 51z" />
    <glyph glyph-name="quotedblleft" unicode="&#x201c;" horiz-adv-x="431" 
d="M124 502q-59 0 -59 51v16q0 39 23.5 86.5t62.5 84.5h62q-27 -32 -44 -59.5t-25 -62.5q39 -9 39 -49v-16q0 -51 -59 -51zM307 502q-59 0 -59 51v16q0 39 23.5 86.5t62.5 84.5h62q-27 -32 -44 -59.5t-25 -62.5q39 -9 39 -49v-16q0 -51 -59 -51z" />
    <glyph glyph-name="quotedblright" unicode="&#x201d;" horiz-adv-x="431" 
d="M124 745q59 0 59 -51v-16q0 -39 -23.5 -86.5t-62.5 -84.5h-62q27 32 44 59.5t25 62.5q-39 9 -39 49v16q0 51 59 51zM307 745q59 0 59 -51v-16q0 -39 -23.5 -86.5t-62.5 -84.5h-62q27 32 44 59.5t25 62.5q-39 9 -39 49v16q0 51 59 51z" />
    <glyph glyph-name="quotedblbase" unicode="&#x201e;" horiz-adv-x="431" 
d="M124 122q59 0 59 -51v-16q0 -39 -23.5 -86.5t-62.5 -84.5h-62q27 32 44 59.5t25 62.5q-39 9 -39 49v16q0 51 59 51zM307 122q59 0 59 -51v-16q0 -39 -23.5 -86.5t-62.5 -84.5h-62q27 32 44 59.5t25 62.5q-39 9 -39 49v16q0 51 59 51z" />
    <glyph glyph-name="dagger" unicode="&#x2020;" horiz-adv-x="494" 
d="M214 -200v658h-170v58h170v224h66v-224h170v-58h-170v-658h-66z" />
    <glyph glyph-name="daggerdbl" unicode="&#x2021;" horiz-adv-x="495" 
d="M215 -200v224h-171v58h171v376h-171v58h171v224h65v-224h171v-58h-171v-376h171v-58h-171v-224h-65z" />
    <glyph glyph-name="bullet" unicode="&#x2022;" horiz-adv-x="358" 
d="M180 190q-62 0 -87.5 25.5t-25.5 67.5v42q0 42 25.5 67.5t87.5 25.5t87.5 -25.5t25.5 -67.5v-42q0 -42 -25.5 -67.5t-87.5 -25.5z" />
    <glyph glyph-name="ellipsis" unicode="&#x2026;" horiz-adv-x="729" 
d="M124 -12q-59 0 -59 51v16q0 51 59 51t59 -51v-16q0 -51 -59 -51zM364 -12q-59 0 -59 51v16q0 51 59 51t59 -51v-16q0 -51 -59 -51zM605 -12q-59 0 -59 51v16q0 51 59 51t59 -51v-16q0 -51 -59 -51z" />
    <glyph glyph-name="perthousand" unicode="&#x2030;" horiz-adv-x="1180" 
d="M164 0l436 698h73l-436 -698h-73zM202 314q-69 0 -106.5 46.5t-37.5 151.5t37.5 151.5t106.5 46.5t106.5 -46.5t37.5 -151.5t-37.5 -151.5t-106.5 -46.5zM202 364q38 0 57 25t19 83v80q0 58 -19 83t-57 25t-57 -25t-19 -83v-80q0 -58 19 -83t57 -25zM635 -12
q-69 0 -106.5 46.5t-37.5 151.5t37.5 151.5t106.5 46.5t106.5 -46.5t37.5 -151.5t-37.5 -151.5t-106.5 -46.5zM635 38q38 0 57 25t19 83v80q0 58 -19 83t-57 25t-57 -25t-19 -83v-80q0 -58 19 -83t57 -25zM978 -12q-69 0 -106.5 46.5t-37.5 151.5t37.5 151.5t106.5 46.5
t106.5 -46.5t37.5 -151.5t-37.5 -151.5t-106.5 -46.5zM978 38q38 0 57 25t19 83v80q0 58 -19 83t-57 25t-57 -25t-19 -83v-80q0 -58 19 -83t57 -25z" />
    <glyph glyph-name="guilsinglleft" unicode="&#x2039;" horiz-adv-x="274" 
d="M205 98l-172 151v72l172 151l26 -53l-121 -130v-8l121 -130z" />
    <glyph glyph-name="guilsinglright" unicode="&#x203a;" horiz-adv-x="274" 
d="M69 472l172 -151v-72l-172 -151l-26 53l121 130v8l-121 130z" />
    <glyph glyph-name="fraction" unicode="&#x2044;" horiz-adv-x="100" 
d="M73 434l166 264h62l-166 -264h-62zM-201 0l160 254h62l-160 -254h-62z" />
    <glyph glyph-name="uni2070" unicode="&#x2070;" horiz-adv-x="320" 
d="M160 323q-132 0 -132 190q0 191 132 191t132 -191q0 -190 -132 -190zM160 372q38 0 54 24.5t16 74.5v85q0 50 -16 74.5t-54 24.5t-54 -24.5t-16 -74.5v-85q0 -50 16 -74.5t54 -24.5z" />
    <glyph glyph-name="uni2074" unicode="&#x2074;" horiz-adv-x="320" 
d="M192 329v72h-170v50l142 247h84v-251h50v-46h-50v-72h-56zM192 645h-6l-113 -198h119v198z" />
    <glyph glyph-name="uni2075" unicode="&#x2075;" horiz-adv-x="320" 
d="M266 650h-161l-10 -135h6q11 22 26 35t50 13q49 0 78.5 -29t29.5 -86t-32.5 -91t-97.5 -34q-26 0 -45 5.5t-33 14.5t-24 21t-18 24l42 33q14 -22 29 -36t49 -14q38 0 53 16t15 45v21q0 29 -15.5 45.5t-51.5 16.5q-26 0 -39 -8t-22 -21l-49 6l13 206h207v-48z" />
    <glyph glyph-name="uni2076" unicode="&#x2076;" horiz-adv-x="320" 
d="M160 323q-61 0 -94.5 35.5t-33.5 108.5q0 40 11 76t29.5 65t41.5 52t47 38h80q-34 -23 -59 -44t-43 -43t-30 -47t-18 -55h6q9 21 28.5 36.5t55.5 15.5q46 0 76.5 -27.5t30.5 -86.5q0 -61 -35 -92.5t-93 -31.5zM160 369q66 0 66 63v20q0 63 -66 63t-66 -63v-20
q0 -63 66 -63z" />
    <glyph glyph-name="uni2077" unicode="&#x2077;" horiz-adv-x="320" 
d="M92 329l133 321h-136v-68h-52v116h246v-48l-128 -321h-63z" />
    <glyph glyph-name="uni2078" unicode="&#x2078;" horiz-adv-x="320" 
d="M160 323q-62 0 -95.5 28t-33.5 79q0 39 22 61t55 27v6q-29 6 -47.5 28t-18.5 57q0 48 30.5 71.5t87.5 23.5t87.5 -23.5t30.5 -71.5q0 -35 -18.5 -57t-47.5 -28v-6q34 -5 55.5 -27t21.5 -61q0 -51 -33.5 -79t-95.5 -28zM160 543q60 0 60 45v25q0 21 -15 33t-45 12t-45 -12
t-15 -33v-25q0 -45 60 -45zM160 369q32 0 49.5 13.5t17.5 37.5v27q0 50 -67 50t-67 -50v-27q0 -24 17.5 -37.5t49.5 -13.5z" />
    <glyph glyph-name="uni2079" unicode="&#x2079;" horiz-adv-x="320" 
d="M288 560q0 -41 -11 -76.5t-29.5 -64.5t-41.5 -52t-47 -38h-80q34 22 59 43.5t43 43.5t30 47t18 55h-6q-9 -21 -28.5 -36.5t-55.5 -15.5q-46 0 -76.5 27.5t-30.5 86.5q0 61 35 92.5t93 31.5q61 0 94.5 -35.5t33.5 -108.5zM160 512q66 0 66 63v20q0 63 -66 63t-66 -63v-20
q0 -63 66 -63z" />
    <glyph glyph-name="uni2080" unicode="&#x2080;" horiz-adv-x="320" 
d="M160 -6q-132 0 -132 190q0 191 132 191t132 -191q0 -190 -132 -190zM160 43q38 0 54 24.5t16 74.5v85q0 50 -16 74.5t-54 24.5t-54 -24.5t-16 -74.5v-85q0 -50 16 -74.5t54 -24.5z" />
    <glyph glyph-name="uni2081" unicode="&#x2081;" horiz-adv-x="320" 
d="M49 0v48h96v269l-92 -55l-24 40l113 67h63v-321h86v-48h-242z" />
    <glyph glyph-name="uni2082" unicode="&#x2082;" horiz-adv-x="320" 
d="M286 0h-246v54l115 105q26 24 41.5 45.5t15.5 47.5v23q0 22 -13.5 36t-44.5 14q-34 0 -48 -17t-21 -42l-51 20q5 17 14 33t24 28.5t36 20t50 7.5q61 0 88.5 -29.5t27.5 -79.5q0 -45 -24.5 -77t-62.5 -65l-87 -76h186v-48z" />
    <glyph glyph-name="uni2083" unicode="&#x2083;" horiz-adv-x="320" 
d="M146 215q34 0 50 13.5t16 33.5v20q0 22 -15.5 33.5t-41.5 11.5q-31 0 -46 -12t-27 -33l-40 32q8 12 17.5 23.5t23 19.5t31.5 13t43 5q51 0 84 -22t33 -73q0 -39 -21 -58.5t-50 -26.5v-6q32 -4 54.5 -24.5t22.5 -62.5q0 -55 -34.5 -81.5t-92.5 -26.5q-28 0 -47.5 5.5
t-34 14.5t-24.5 21t-19 24l44 33q13 -22 28 -36t51 -14q32 0 49.5 14.5t17.5 39.5v23q0 25 -18 36.5t-51 11.5h-38v48h35z" />
    <glyph glyph-name="uni2084" unicode="&#x2084;" horiz-adv-x="320" 
d="M192 0v72h-170v50l142 247h84v-251h50v-46h-50v-72h-56zM192 316h-6l-113 -198h119v198z" />
    <glyph glyph-name="uni2085" unicode="&#x2085;" horiz-adv-x="320" 
d="M105 321l-10 -135h6q11 22 26 35t50 13q49 0 78.5 -29t29.5 -86t-32.5 -91t-97.5 -34q-26 0 -45 5.5t-33 14.5t-24 21t-18 24l42 33q14 -22 29 -36t49 -14q38 0 53 16t15 45v21q0 29 -15.5 45.5t-51.5 16.5q-26 0 -39 -8t-22 -21l-49 6l13 206h207v-48h-161z" />
    <glyph glyph-name="uni2086" unicode="&#x2086;" horiz-adv-x="320" 
d="M160 -6q-61 0 -94.5 35.5t-33.5 108.5q0 40 11 76t29.5 65t41.5 52t47 38h80q-34 -23 -59 -44t-43 -43t-30 -47t-18 -55h6q9 21 28.5 36.5t55.5 15.5q46 0 76.5 -27.5t30.5 -86.5q0 -61 -35 -92.5t-93 -31.5zM160 40q66 0 66 63v20q0 63 -66 63t-66 -63v-20q0 -63 66 -63
z" />
    <glyph glyph-name="uni2087" unicode="&#x2087;" horiz-adv-x="320" 
d="M92 0l133 321h-136v-68h-52v116h246v-48l-128 -321h-63z" />
    <glyph glyph-name="uni2088" unicode="&#x2088;" horiz-adv-x="320" 
d="M160 -6q-62 0 -95.5 28t-33.5 79q0 39 22 61t55 27v6q-29 6 -47.5 28t-18.5 57q0 48 30.5 71.5t87.5 23.5t87.5 -23.5t30.5 -71.5q0 -35 -18.5 -57t-47.5 -28v-6q34 -5 55.5 -27t21.5 -61q0 -51 -33.5 -79t-95.5 -28zM160 40q32 0 49.5 13.5t17.5 37.5v27q0 50 -67 50
t-67 -50v-27q0 -24 17.5 -37.5t49.5 -13.5zM160 214q60 0 60 45v25q0 21 -15 33t-45 12t-45 -12t-15 -33v-25q0 -45 60 -45z" />
    <glyph glyph-name="uni2089" unicode="&#x2089;" horiz-adv-x="320" 
d="M288 231q0 -41 -11 -76.5t-29.5 -64.5t-41.5 -52t-47 -38h-80q34 22 59 43.5t43 43.5t30 47t18 55h-6q-9 -21 -28.5 -36.5t-55.5 -15.5q-46 0 -76.5 27.5t-30.5 86.5q0 61 35 92.5t93 31.5q61 0 94.5 -35.5t33.5 -108.5zM160 183q66 0 66 63v20q0 63 -66 63t-66 -63v-20
q0 -63 66 -63z" />
    <glyph glyph-name="uni20A1" unicode="&#x20a1;" horiz-adv-x="565" 
d="M288 -4q-17 1 -32 3.5t-29 6.5l-8 -88h-58l10 113q-57 38 -88 116t-31 202q0 154 47 237.5t134 106.5l8 87h58l-8 -78h12q26 0 50 -3l8 81h58l-9 -96q75 -31 111 -120l-64 -39q-9 27 -23 47.5t-34 34.5l-49 -537q45 9 71 37t40 73l64 -40q-25 -61 -69 -97t-111 -44
l-7 -81h-58zM303 633h-10t-10 -1l-51 -552q29 -14 64 -15l52 564q-17 4 -45 4zM138 271q0 -97 44 -150l45 494q-43 -23 -66 -71t-23 -117v-156z" />
    <glyph glyph-name="uni20A4" unicode="&#x20a4;" horiz-adv-x="535" 
d="M477 0h-405v92q36 18 50.5 50.5t14.5 90.5v2h-86v65h77q-5 24 -13 48t-14 50h-50v65h39q-1 8 -1.5 17t-0.5 19q0 101 53.5 156t157.5 55q73 0 119 -26.5t75 -77.5l-59 -43q-21 38 -53 57.5t-84 19.5q-63 0 -95 -33t-32 -115v-15t1 -14h226v-65h-216q6 -26 13.5 -50
t12.5 -48h187v-65h-179q-1 -63 -27.5 -104.5t-65.5 -51.5v-9h355v-70z" />
    <glyph glyph-name="uni20A6" unicode="&#x20a6;" horiz-adv-x="632" 
d="M333 235h-169v-235h-78v235h-70v65h70v98h-70v65h70v235h99l115 -235h168v235h78v-235h70v-65h-70v-98h67v-65h-67v-235h-98zM164 296h139l-77 157l-59 144h-10l7 -144v-157zM475 101l-7 144v157h-139l77 -157l59 -144h10z" />
    <glyph glyph-name="uni20A8" unicode="&#x20a8;" horiz-adv-x="652" 
d="M83 0v698h167q81 0 118 -45t37 -142q0 -76 -22.5 -120t-72.5 -59l83 -202q16 -39 38.5 -58.5t56.5 -19.5t51 16t17 40q0 22 -10.5 41.5t-39.5 54.5l-17 20q-38 44 -53 74t-15 63q0 49 29.5 80.5t83.5 31.5q24 0 47.5 -5.5t44.5 -22.5l-30 -54q-25 22 -58 22
q-47 0 -47 -52q0 -23 10.5 -41.5t39.5 -49.5l14 -15q22 -23 36 -41t22 -34t11.5 -32t3.5 -36q0 -56 -35.5 -90t-108.5 -34q-63 0 -99.5 28t-59.5 85l-89 223h-77v-324h-76zM242 392q44 0 64.5 19t20.5 66v68q0 47 -20.5 66t-64.5 19h-83v-238h83z" />
    <glyph glyph-name="uni20A9" unicode="&#x20a9;" horiz-adv-x="862" 
d="M507 235h-155l-53 -235h-100l-52 235h-111v65h97l-21 98h-76v65h62l-52 235h83l49 -235h150l50 235h108l50 -235h150l49 235h81l-54 -235h64v-65h-78l-23 -98h101v-65h-115l-54 -235h-100zM283 247l33 155h-125l32 -155l25 -167h10zM616 80l25 167l32 155h-125l33 -155
l25 -167h10zM366 296h128l-33 155l-25 177h-10l-25 -177z" />
    <glyph glyph-name="uni20AA" unicode="&#x20aa;" horiz-adv-x="702" 
d="M236 542h76v-476h142q48 0 69 26.5t21 75.5v530h76v-534q0 -81 -40.5 -122.5t-121.5 -41.5h-222v542zM82 0v698h222q81 0 121.5 -41.5t40.5 -122.5v-378h-76v374q0 49 -21 75.5t-69 26.5h-142v-632h-76z" />
    <glyph glyph-name="uni20AB" unicode="&#x20ab;" horiz-adv-x="522" 
d="M350 207h-10q-33 -78 -120 -78q-72 0 -115.5 53t-43.5 163t43.5 163t115.5 53q87 0 120 -78h10v141h-135v56h135v60h72v-60h60v-56h-60v-486h-72v69zM247 191q45 0 74 26t29 70v117q0 44 -29 70t-74 26q-50 0 -79 -28.5t-29 -82.5v-87q0 -54 29 -82.5t79 -28.5zM63 0v62
h386v-62h-386z" />
    <glyph glyph-name="Euro" unicode="&#x20ac;" horiz-adv-x="563" 
d="M301 -12q-117 0 -183 87t-66 274t66 274t183 87q85 0 136 -34t80 -104l-64 -39q-17 52 -52.5 79t-99.5 27q-70 0 -111.5 -47.5t-49.5 -128.5h228v-65h-230v-98h230v-65h-228q8 -81 49.5 -128.5t111.5 -47.5q66 0 103 28.5t54 84.5l64 -40q-29 -71 -82.5 -107.5
t-138.5 -36.5z" />
    <glyph glyph-name="uni20AD" unicode="&#x20ad;" horiz-adv-x="559" 
d="M163 0h-78v329h-70v65h70v304h78v-304h70l200 304h84l-157 -237l-55 -67h201v-65h-201l54 -67l170 -262h-86l-210 329h-70v-329z" />
    <glyph glyph-name="uni20AE" unicode="&#x20ae;" horiz-adv-x="548" 
d="M314 218v-218h-80v179l-120 -64v66l120 64v95l-120 -64v66l120 64v222h-197v70h474v-70h-197v-183l120 64v-66l-120 -64v-95l120 64v-66z" />
    <glyph glyph-name="uni20B1" unicode="&#x20b1;" horiz-adv-x="569" 
d="M177 0h-78v337h-70v65h70v90h-70v65h70v141h201q72 0 114.5 -32t59.5 -109h79v-65h-71q1 -11 1 -22v-23v-23t-1 -22h71v-65h-79q-17 -77 -59.5 -109t-114.5 -32h-123v-196zM177 557h222q-7 36 -32 54.5t-63 18.5h-127v-73zM401 398v98h-224v-98h224zM304 264
q38 0 63 18.5t32 54.5h-222v-73h127z" />
    <glyph glyph-name="uni20B2" unicode="&#x20b2;" horiz-adv-x="608" 
d="M303 -4h-15t-15 1l-12 -79h-64l15 93q-77 29 -118.5 111.5t-41.5 226.5q0 182 66.5 267.5t184.5 85.5h17l12 78h64l-14 -87q51 -13 85.5 -44.5t55.5 -82.5l-64 -39q-12 36 -33.5 60.5t-55.5 35.5l-42 -266h216v-96q0 -134 -63.5 -199.5t-177.5 -65.5zM138 271
q0 -68 22.5 -116t64.5 -71l86 549h-8q-78 0 -121.5 -55.5t-43.5 -150.5v-156zM318 291l-36 -225q5 -1 10.5 -1h10.5q77 0 120.5 39.5t43.5 135.5v51h-149z" />
    <glyph glyph-name="uni20B4" unicode="&#x20b4;" horiz-adv-x="566" 
d="M294 -12q-96 0 -145 41.5t-49 124.5q0 20 5.5 40.5t15.5 40.5h-80v65h123l88 65l54 31v8l-90 -6h-175v65h322q10 17 15.5 36.5t5.5 38.5q0 53 -24 77t-84 24q-73 0 -124 -63l-49 49q35 45 81 65t100 20q180 0 180 -163q0 -20 -5.5 -41.5t-15.5 -42.5h80v-65h-123l-88 -65
l-54 -31v-8l90 6h172v-65h-319q-10 -17 -15.5 -35.5t-5.5 -36.5q0 -54 28.5 -79t93.5 -25q40 0 70 16.5t58 50.5l49 -49q-37 -47 -83 -68t-102 -21z" />
    <glyph glyph-name="uni20B5" unicode="&#x20b5;" horiz-adv-x="564" 
d="M298 -4h-12.5t-12.5 1l-12 -79h-64l14 92q-76 28 -117.5 110.5t-41.5 228.5q0 182 65 267.5t181 85.5h11t11 -1l12 79h64l-14 -89q46 -14 77.5 -45.5t51.5 -81.5l-64 -39q-11 35 -30 58.5t-48 36.5l-87 -554q4 -1 8 -1h8q65 0 101 29.5t53 85.5l64 -40
q-29 -71 -82 -107.5t-136 -36.5zM138 271q0 -69 22.5 -117.5t64.5 -71.5l86 551h-13q-76 0 -118 -55.5t-42 -150.5v-156z" />
    <glyph glyph-name="uni20B8" unicode="&#x20b8;" horiz-adv-x="547" 
d="M36 633v65h474v-65h-474zM313 478v-478h-80v478h-197v65h474v-65h-197z" />
    <glyph glyph-name="uni20B9" unicode="&#x20b9;" horiz-adv-x="546" 
d="M48 543h297q0 48 -24.5 69t-72.5 21h-200v65h465v-65h-171v-8q30 -3 50 -23t27 -59h94v-65h-91q-5 -97 -50.5 -136t-123.5 -39l198 -303h-94l-194 303h-110v65h200q48 0 72.5 21t24.5 69v20h-297v65z" />
    <glyph glyph-name="uni20BA" unicode="&#x20ba;" horiz-adv-x="546" 
d="M99 251l-90 -48v66l90 48v95l-90 -48v66l90 48v220h80v-181l190 101v-66l-190 -101v-95l190 101v-66l-190 -101v-220h87q77 0 118.5 54.5t41.5 175.5h78q0 -70 -13.5 -125.5t-42.5 -94.5t-74 -59.5t-108 -20.5h-167v251z" />
    <glyph glyph-name="uni20BD" unicode="&#x20bd;" horiz-adv-x="563" 
d="M176 137v-137h-80v137h-80v65h80v98h-80v70h80v328h257q173 0 173 -199t-173 -199h-177v-98h245v-65h-245zM176 370h175q89 0 89 96v66q0 96 -89 96h-175v-258z" />
    <glyph glyph-name="uni20BF" unicode="&#x20bf;" horiz-adv-x="580" 
d="M301 21h-57v-103h-64v103h-97v656h97v103h64v-103h57v103h64v-104q67 -7 102.5 -48t35.5 -120q0 -69 -29.5 -102t-80.5 -40v-8q60 -4 96 -38t36 -109q0 -92 -44 -141t-116 -49v-103h-64v103zM161 392h177q44 0 63.5 20.5t19.5 63.5v49q0 43 -19.5 63.5t-63.5 20.5h-177
v-217zM161 89h181q47 0 74 22t27 69v55q0 47 -27 69t-74 22h-181v-237z" />
    <glyph glyph-name="uni2113" unicode="&#x2113;" horiz-adv-x="443" 
d="M247 -12q-68 0 -103.5 41.5t-35.5 117.5v21l-47 -35l-33 46l80 59v348q0 81 30.5 123.5t98.5 42.5t98.5 -42.5t30.5 -123.5q0 -54 -14 -105.5t-39 -98.5t-59.5 -88t-75.5 -74v-62q0 -55 17.5 -81t57.5 -26q38 0 65 26.5t45 78.5l54 -30q-21 -65 -64 -101.5t-106 -36.5z
M235 689q-28 0 -42.5 -19t-14.5 -69v-304q51 54 82.5 126t31.5 153v25q0 50 -14.5 69t-42.5 19z" />
    <glyph glyph-name="uni2116" unicode="&#x2116;" horiz-adv-x="931" 
d="M748 364q-64 0 -104.5 42t-40.5 131t40.5 131t104.5 42t104.5 -42t40.5 -131t-40.5 -131t-104.5 -42zM83 0v698h101l213 -453l57 -144h10l-7 144v453h78v-698h-101l-213 453l-57 144h-10l7 -144v-453h-78zM748 414q38 0 59 24.5t21 62.5v72q0 38 -21 62.5t-59 24.5
t-59 -24.5t-21 -62.5v-72q0 -38 21 -62.5t59 -24.5zM623 251v59h250v-59h-250z" />
    <glyph glyph-name="trademark" unicode="&#x2122;" horiz-adv-x="590" 
d="M107 420v234h-79v44h206v-44h-79v-234h-48zM279 420v278h59l59 -135h4l59 135h60v-278h-44v130l6 82h-8l-75 -158l-74 158h-8l6 -82v-130h-44z" />
    <glyph glyph-name="Omega" unicode="&#x2126;" horiz-adv-x="644" 
d="M51 66h158v9q-29 12 -56.5 32.5t-49 55.5t-35 89t-13.5 132q0 69 15.5 128.5t48.5 103.5t83.5 69t119.5 25t119.5 -25t83.5 -69t48.5 -103.5t15.5 -128.5q0 -78 -13.5 -132t-35 -89t-49 -55.5t-55.5 -32.5v-9h157v-66h-209v101q21 9 42.5 25.5t38.5 41t28 57.5t11 75v160
q0 32 -12.5 64.5t-35.5 58t-57 41.5t-77 16t-77 -16t-57 -41.5t-35.5 -58t-12.5 -64.5v-160q0 -42 11 -75t28 -57.5t39 -41t43 -25.5v-101h-210v66z" />
    <glyph glyph-name="uni212E" unicode="&#x212e;" horiz-adv-x="653" 
d="M164 97q26 -27 68.5 -45t94.5 -18q84 0 138.5 40.5t85.5 107.5l40 -22q-18 -38 -42 -69.5t-56.5 -54t-73.5 -35.5t-92 -13q-64 0 -118 22.5t-93.5 68t-61.5 113t-22 157.5t22 157.5t61.5 113t93.5 68t118 22.5t118 -22.5t93.5 -68t61.5 -113t22 -157.5h-458v-252z
M490 395v210q-27 25 -68.5 42t-94.5 17q-52 0 -93.5 -17t-69.5 -42v-210h326z" />
    <glyph glyph-name="uni2150" unicode="&#x2150;" horiz-adv-x="740" 
d="M49 329v48h96v269l-92 -55l-24 40l113 67h63v-321h86v-48h-242zM393 434l166 264h62l-166 -264h-62zM119 0l160 254h62l-160 -254h-62zM512 0l133 321h-136v-68h-52v116h246v-48l-128 -321h-63z" />
    <glyph glyph-name="uni2151" unicode="&#x2151;" horiz-adv-x="740" 
d="M49 329v48h96v269l-92 -55l-24 40l113 67h63v-321h86v-48h-242zM393 434l166 264h62l-166 -264h-62zM119 0l160 254h62l-160 -254h-62zM708 231q0 -41 -11 -76.5t-29.5 -64.5t-41.5 -52t-47 -38h-80q34 22 59 43.5t43 43.5t30 47t18 55h-6q-9 -21 -28.5 -36.5
t-55.5 -15.5q-46 0 -76.5 27.5t-30.5 86.5q0 61 35 92.5t93 31.5q61 0 94.5 -35.5t33.5 -108.5zM580 183q66 0 66 63v20q0 63 -66 63t-66 -63v-20q0 -63 66 -63z" />
    <glyph glyph-name="uni2153" unicode="&#x2153;" horiz-adv-x="740" 
d="M49 329v48h96v269l-92 -55l-24 40l113 67h63v-321h86v-48h-242zM393 434l166 264h62l-166 -264h-62zM119 0l160 254h62l-160 -254h-62zM566 215q34 0 50 13.5t16 33.5v20q0 22 -15.5 33.5t-41.5 11.5q-31 0 -46 -12t-27 -33l-40 32q8 12 17.5 23.5t23 19.5t31.5 13t43 5
q51 0 84 -22t33 -73q0 -39 -21 -58.5t-50 -26.5v-6q32 -4 54.5 -24.5t22.5 -62.5q0 -55 -34.5 -81.5t-92.5 -26.5q-28 0 -47.5 5.5t-34 14.5t-24.5 21t-19 24l44 33q13 -22 28 -36t51 -14q32 0 49.5 14.5t17.5 39.5v23q0 25 -18 36.5t-51 11.5h-38v48h35z" />
    <glyph glyph-name="uni2154" unicode="&#x2154;" horiz-adv-x="740" 
d="M286 329h-246v54l115 105q26 24 41.5 45.5t15.5 47.5v23q0 22 -13.5 36t-44.5 14q-34 0 -48 -17t-21 -42l-51 20q5 17 14 33t24 28.5t36 20t50 7.5q61 0 88.5 -29.5t27.5 -79.5q0 -45 -24.5 -77t-62.5 -65l-87 -76h186v-48zM393 434l166 264h62l-166 -264h-62zM119 0
l160 254h62l-160 -254h-62zM566 215q34 0 50 13.5t16 33.5v20q0 22 -15.5 33.5t-41.5 11.5q-31 0 -46 -12t-27 -33l-40 32q8 12 17.5 23.5t23 19.5t31.5 13t43 5q51 0 84 -22t33 -73q0 -39 -21 -58.5t-50 -26.5v-6q32 -4 54.5 -24.5t22.5 -62.5q0 -55 -34.5 -81.5
t-92.5 -26.5q-28 0 -47.5 5.5t-34 14.5t-24.5 21t-19 24l44 33q13 -22 28 -36t51 -14q32 0 49.5 14.5t17.5 39.5v23q0 25 -18 36.5t-51 11.5h-38v48h35z" />
    <glyph glyph-name="uni2155" unicode="&#x2155;" horiz-adv-x="740" 
d="M49 329v48h96v269l-92 -55l-24 40l113 67h63v-321h86v-48h-242zM393 434l166 264h62l-166 -264h-62zM119 0l160 254h62l-160 -254h-62zM525 321l-10 -135h6q11 22 26 35t50 13q49 0 78.5 -29t29.5 -86t-32.5 -91t-97.5 -34q-26 0 -45 5.5t-33 14.5t-24 21t-18 24l42 33
q14 -22 29 -36t49 -14q38 0 53 16t15 45v21q0 29 -15.5 45.5t-51.5 16.5q-26 0 -39 -8t-22 -21l-49 6l13 206h207v-48h-161z" />
    <glyph glyph-name="uni2156" unicode="&#x2156;" horiz-adv-x="740" 
d="M286 329h-246v54l115 105q26 24 41.5 45.5t15.5 47.5v23q0 22 -13.5 36t-44.5 14q-34 0 -48 -17t-21 -42l-51 20q5 17 14 33t24 28.5t36 20t50 7.5q61 0 88.5 -29.5t27.5 -79.5q0 -45 -24.5 -77t-62.5 -65l-87 -76h186v-48zM393 434l166 264h62l-166 -264h-62zM119 0
l160 254h62l-160 -254h-62zM525 321l-10 -135h6q11 22 26 35t50 13q49 0 78.5 -29t29.5 -86t-32.5 -91t-97.5 -34q-26 0 -45 5.5t-33 14.5t-24 21t-18 24l42 33q14 -22 29 -36t49 -14q38 0 53 16t15 45v21q0 29 -15.5 45.5t-51.5 16.5q-26 0 -39 -8t-22 -21l-49 6l13 206
h207v-48h-161z" />
    <glyph glyph-name="uni2157" unicode="&#x2157;" horiz-adv-x="740" 
d="M146 544q34 0 50 13.5t16 33.5v20q0 22 -15.5 33.5t-41.5 11.5q-31 0 -46 -12t-27 -33l-40 32q8 12 17.5 23.5t23 19.5t31.5 13t43 5q51 0 84 -22t33 -73q0 -39 -21 -58.5t-50 -26.5v-6q32 -4 54.5 -24.5t22.5 -62.5q0 -55 -34.5 -81.5t-92.5 -26.5q-28 0 -47.5 5.5
t-34 14.5t-24.5 21t-19 24l44 33q13 -22 28 -36t51 -14q32 0 49.5 14.5t17.5 39.5v23q0 25 -18 36.5t-51 11.5h-38v48h35zM393 434l166 264h62l-166 -264h-62zM119 0l160 254h62l-160 -254h-62zM525 321l-10 -135h6q11 22 26 35t50 13q49 0 78.5 -29t29.5 -86t-32.5 -91
t-97.5 -34q-26 0 -45 5.5t-33 14.5t-24 21t-18 24l42 33q14 -22 29 -36t49 -14q38 0 53 16t15 45v21q0 29 -15.5 45.5t-51.5 16.5q-26 0 -39 -8t-22 -21l-49 6l13 206h207v-48h-161z" />
    <glyph glyph-name="uni2158" unicode="&#x2158;" horiz-adv-x="740" 
d="M192 329v72h-170v50l142 247h84v-251h50v-46h-50v-72h-56zM192 645h-6l-113 -198h119v198zM393 434l166 264h62l-166 -264h-62zM119 0l160 254h62l-160 -254h-62zM525 321l-10 -135h6q11 22 26 35t50 13q49 0 78.5 -29t29.5 -86t-32.5 -91t-97.5 -34q-26 0 -45 5.5
t-33 14.5t-24 21t-18 24l42 33q14 -22 29 -36t49 -14q38 0 53 16t15 45v21q0 29 -15.5 45.5t-51.5 16.5q-26 0 -39 -8t-22 -21l-49 6l13 206h207v-48h-161z" />
    <glyph glyph-name="uni2159" unicode="&#x2159;" horiz-adv-x="740" 
d="M49 329v48h96v269l-92 -55l-24 40l113 67h63v-321h86v-48h-242zM393 434l166 264h62l-166 -264h-62zM119 0l160 254h62l-160 -254h-62zM580 -6q-61 0 -94.5 35.5t-33.5 108.5q0 40 11 76t29.5 65t41.5 52t47 38h80q-34 -23 -59 -44t-43 -43t-30 -47t-18 -55h6
q9 21 28.5 36.5t55.5 15.5q46 0 76.5 -27.5t30.5 -86.5q0 -61 -35 -92.5t-93 -31.5zM580 40q66 0 66 63v20q0 63 -66 63t-66 -63v-20q0 -63 66 -63z" />
    <glyph glyph-name="uni215A" unicode="&#x215a;" horiz-adv-x="740" 
d="M266 650h-161l-10 -135h6q11 22 26 35t50 13q49 0 78.5 -29t29.5 -86t-32.5 -91t-97.5 -34q-26 0 -45 5.5t-33 14.5t-24 21t-18 24l42 33q14 -22 29 -36t49 -14q38 0 53 16t15 45v21q0 29 -15.5 45.5t-51.5 16.5q-26 0 -39 -8t-22 -21l-49 6l13 206h207v-48zM393 434
l166 264h62l-166 -264h-62zM119 0l160 254h62l-160 -254h-62zM580 -6q-61 0 -94.5 35.5t-33.5 108.5q0 40 11 76t29.5 65t41.5 52t47 38h80q-34 -23 -59 -44t-43 -43t-30 -47t-18 -55h6q9 21 28.5 36.5t55.5 15.5q46 0 76.5 -27.5t30.5 -86.5q0 -61 -35 -92.5t-93 -31.5z
M580 40q66 0 66 63v20q0 63 -66 63t-66 -63v-20q0 -63 66 -63z" />
    <glyph glyph-name="uni215B" unicode="&#x215b;" horiz-adv-x="740" 
d="M49 329v48h96v269l-92 -55l-24 40l113 67h63v-321h86v-48h-242zM393 434l166 264h62l-166 -264h-62zM119 0l160 254h62l-160 -254h-62zM580 -6q-62 0 -95.5 28t-33.5 79q0 39 22 61t55 27v6q-29 6 -47.5 28t-18.5 57q0 48 30.5 71.5t87.5 23.5t87.5 -23.5t30.5 -71.5
q0 -35 -18.5 -57t-47.5 -28v-6q34 -5 55.5 -27t21.5 -61q0 -51 -33.5 -79t-95.5 -28zM580 40q32 0 49.5 13.5t17.5 37.5v27q0 50 -67 50t-67 -50v-27q0 -24 17.5 -37.5t49.5 -13.5zM580 214q60 0 60 45v25q0 21 -15 33t-45 12t-45 -12t-15 -33v-25q0 -45 60 -45z" />
    <glyph glyph-name="uni215C" unicode="&#x215c;" horiz-adv-x="740" 
d="M146 544q34 0 50 13.5t16 33.5v20q0 22 -15.5 33.5t-41.5 11.5q-31 0 -46 -12t-27 -33l-40 32q8 12 17.5 23.5t23 19.5t31.5 13t43 5q51 0 84 -22t33 -73q0 -39 -21 -58.5t-50 -26.5v-6q32 -4 54.5 -24.5t22.5 -62.5q0 -55 -34.5 -81.5t-92.5 -26.5q-28 0 -47.5 5.5
t-34 14.5t-24.5 21t-19 24l44 33q13 -22 28 -36t51 -14q32 0 49.5 14.5t17.5 39.5v23q0 25 -18 36.5t-51 11.5h-38v48h35zM393 434l166 264h62l-166 -264h-62zM119 0l160 254h62l-160 -254h-62zM580 -6q-62 0 -95.5 28t-33.5 79q0 39 22 61t55 27v6q-29 6 -47.5 28t-18.5 57
q0 48 30.5 71.5t87.5 23.5t87.5 -23.5t30.5 -71.5q0 -35 -18.5 -57t-47.5 -28v-6q34 -5 55.5 -27t21.5 -61q0 -51 -33.5 -79t-95.5 -28zM580 40q32 0 49.5 13.5t17.5 37.5v27q0 50 -67 50t-67 -50v-27q0 -24 17.5 -37.5t49.5 -13.5zM580 214q60 0 60 45v25q0 21 -15 33
t-45 12t-45 -12t-15 -33v-25q0 -45 60 -45z" />
    <glyph glyph-name="uni215D" unicode="&#x215d;" horiz-adv-x="740" 
d="M266 650h-161l-10 -135h6q11 22 26 35t50 13q49 0 78.5 -29t29.5 -86t-32.5 -91t-97.5 -34q-26 0 -45 5.5t-33 14.5t-24 21t-18 24l42 33q14 -22 29 -36t49 -14q38 0 53 16t15 45v21q0 29 -15.5 45.5t-51.5 16.5q-26 0 -39 -8t-22 -21l-49 6l13 206h207v-48zM393 434
l166 264h62l-166 -264h-62zM119 0l160 254h62l-160 -254h-62zM580 -6q-62 0 -95.5 28t-33.5 79q0 39 22 61t55 27v6q-29 6 -47.5 28t-18.5 57q0 48 30.5 71.5t87.5 23.5t87.5 -23.5t30.5 -71.5q0 -35 -18.5 -57t-47.5 -28v-6q34 -5 55.5 -27t21.5 -61q0 -51 -33.5 -79
t-95.5 -28zM580 40q32 0 49.5 13.5t17.5 37.5v27q0 50 -67 50t-67 -50v-27q0 -24 17.5 -37.5t49.5 -13.5zM580 214q60 0 60 45v25q0 21 -15 33t-45 12t-45 -12t-15 -33v-25q0 -45 60 -45z" />
    <glyph glyph-name="uni215E" unicode="&#x215e;" horiz-adv-x="740" 
d="M92 329l133 321h-136v-68h-52v116h246v-48l-128 -321h-63zM393 434l166 264h62l-166 -264h-62zM119 0l160 254h62l-160 -254h-62zM580 -6q-62 0 -95.5 28t-33.5 79q0 39 22 61t55 27v6q-29 6 -47.5 28t-18.5 57q0 48 30.5 71.5t87.5 23.5t87.5 -23.5t30.5 -71.5
q0 -35 -18.5 -57t-47.5 -28v-6q34 -5 55.5 -27t21.5 -61q0 -51 -33.5 -79t-95.5 -28zM580 40q32 0 49.5 13.5t17.5 37.5v27q0 50 -67 50t-67 -50v-27q0 -24 17.5 -37.5t49.5 -13.5zM580 214q60 0 60 45v25q0 21 -15 33t-45 12t-45 -12t-15 -33v-25q0 -45 60 -45z" />
    <glyph glyph-name="uni2190" unicode="&#x2190;" horiz-adv-x="780" 
d="M235 549l46 -46l-64 -64l-75 -56l5 -11l102 9h496v-64h-496l-103 9l-5 -10l76 -57l64 -64l-46 -46l-200 200z" />
    <glyph glyph-name="uni2191" unicode="&#x2191;" horiz-adv-x="780" 
d="M590 510l-46 -46l-64 64l-56 75l-11 -5l9 -102v-496h-64v496l9 103l-10 5l-57 -76l-64 -64l-46 46l200 200z" />
    <glyph glyph-name="uni2192" unicode="&#x2192;" horiz-adv-x="780" 
d="M545 149l-46 46l64 64l76 57l-5 10l-103 -9h-496v64h496l102 -9l5 11l-75 56l-64 64l46 46l200 -200z" />
    <glyph glyph-name="uni2193" unicode="&#x2193;" horiz-adv-x="780" 
d="M190 188l46 46l64 -64l57 -76l10 5l-9 103v496h64v-496l-9 -102l11 -5l56 75l64 64l46 -46l-200 -200z" />
    <glyph glyph-name="uni2194" unicode="&#x2194;" horiz-adv-x="780" 
d="M229 549l46 -46l-64 -64l-75 -56l5 -11l102 9h294l102 -9l5 11l-75 56l-64 64l46 46l200 -200l-200 -200l-46 46l64 64l76 57l-5 10l-103 -9h-294l-103 9l-5 -10l76 -57l64 -64l-46 -46l-200 200z" />
    <glyph glyph-name="uni2195" unicode="&#x2195;" horiz-adv-x="780" 
d="M190 188l46 46l64 -64l56 -75l11 5l-9 102v294l9 102l-11 5l-56 -75l-64 -64l-46 46l200 200l200 -200l-46 -46l-64 64l-57 76l-10 -5l9 -103v-294l-9 -103l10 -5l57 76l64 64l46 -46l-200 -200z" />
    <glyph glyph-name="uni2196" unicode="&#x2196;" horiz-adv-x="780" 
d="M413 626v-65h-91l-94 13l-3 -10l79 -67l351 -350l-46 -46l-350 351l-66 79l-11 -5l13 -92v-91h-65v283h283z" />
    <glyph glyph-name="uni2197" unicode="&#x2197;" horiz-adv-x="780" 
d="M650 343h-65v91l13 92l-11 5l-66 -79l-350 -351l-46 46l351 350l79 67l-3 10l-94 -13h-91v65h283v-283z" />
    <glyph glyph-name="uni2198" unicode="&#x2198;" horiz-adv-x="780" 
d="M367 101v65h91l94 -13l3 10l-79 67l-351 350l46 46l350 -351l66 -79l11 5l-13 92v91h65v-283h-283z" />
    <glyph glyph-name="uni2199" unicode="&#x2199;" horiz-adv-x="780" 
d="M130 384h65v-91l-13 -92l11 -5l66 79l350 351l46 -46l-351 -350l-79 -67l3 -10l94 13h91v-65h-283v283z" />
    <glyph glyph-name="uni21A9" unicode="&#x21a9;" horiz-adv-x="780" 
d="M235 485l46 -46l-64 -64l-75 -56l5 -11l102 9h291q67 0 104 31.5t37 94.5q0 59 -37 88.5t-104 29.5v60q94 0 149.5 -46.5t55.5 -137.5t-55.5 -137.5t-149.5 -46.5h-291l-103 9l-5 -10l76 -57l64 -64l-46 -46l-200 200z" />
    <glyph glyph-name="uni21AA" unicode="&#x21aa;" horiz-adv-x="780" 
d="M545 85l-46 46l64 64l76 57l-5 10l-103 -9h-291q-94 0 -149.5 46.5t-55.5 137.5t55.5 137.5t149.5 46.5v-60q-67 0 -104 -29.5t-37 -88.5q0 -63 37 -94.5t104 -31.5h291l102 -9l5 11l-75 56l-64 64l46 46l200 -200z" />
    <glyph glyph-name="uni21B0" unicode="&#x21b0;" horiz-adv-x="780" 
d="M309 710l46 -46l-64 -64l-75 -56l5 -11l102 9h278v-542h-64v478h-214l-103 9l-5 -10l76 -57l64 -64l-46 -46l-200 200z" />
    <glyph glyph-name="uni21B1" unicode="&#x21b1;" horiz-adv-x="780" 
d="M471 310l-46 46l64 64l76 57l-5 10l-103 -9h-214v-478h-64v542h278l102 -9l5 11l-75 56l-64 64l46 46l200 -200z" />
    <glyph glyph-name="uni21B2" unicode="&#x21b2;" horiz-adv-x="780" 
d="M309 388l46 -46l-64 -64l-76 -57l5 -10l103 9h214v478h64v-542h-278l-102 9l-5 -11l75 -56l64 -64l-46 -46l-200 200z" />
    <glyph glyph-name="uni21B3" unicode="&#x21b3;" horiz-adv-x="780" 
d="M471 -12l-46 46l64 64l75 56l-5 11l-102 -9h-278v542h64v-478h214l103 -9l5 10l-76 57l-64 64l46 46l200 -200z" />
    <glyph glyph-name="uni21B6" unicode="&#x21b6;" horiz-adv-x="780" 
d="M29 248l46 46l64 -64l56 -75l11 5l-9 102v126q0 59 21 109t58 86t88 56.5t110 20.5t110 -20.5t88 -56.5t58 -86t21 -109h-64q0 46 -16.5 84.5t-45 67t-67.5 44.5t-84 16t-84 -16t-67.5 -44.5t-45 -67t-16.5 -84.5v-126l-9 -103l10 -5l57 76l64 64l46 -46l-200 -200z" />
    <glyph glyph-name="uni21B7" unicode="&#x21b7;" horiz-adv-x="780" 
d="M351 248l46 46l64 -64l57 -76l10 5l-9 103v126q0 46 -16.5 84.5t-45 67t-67.5 44.5t-84 16t-84 -16t-67.5 -44.5t-45 -67t-16.5 -84.5h-64q0 59 21 109t58 86t88 56.5t110 20.5t110 -20.5t88 -56.5t58 -86t21 -109v-126l-9 -102l11 -5l56 75l64 64l46 -46l-200 -200z" />
    <glyph glyph-name="uni21BA" unicode="&#x21ba;" horiz-adv-x="780" 
d="M659 698v-65h-91l-94 13l-3 -10l77 -73q42 -40 70.5 -75t45 -67.5t23.5 -63.5t7 -62q0 -66 -23 -122t-63.5 -97t-96.5 -64.5t-121 -23.5t-121 23.5t-96.5 64.5t-63.5 97t-23 122t22.5 121t63.5 95l45 -45q-32 -32 -49.5 -75.5t-17.5 -95.5q0 -53 18 -98t50.5 -78
t76.5 -52t95 -19t95 19t76.5 52t50.5 78t18 98q0 25 -5.5 50.5t-19 53t-36.5 58.5t-58 69l-72 77l-11 -5l13 -92v-91h-65v283h283z" />
    <glyph glyph-name="uni21BB" unicode="&#x21bb;" horiz-adv-x="780" 
d="M404 415h-65v91l13 92l-11 5l-72 -77q-35 -38 -58 -69t-36.5 -58.5t-19 -53t-5.5 -50.5q0 -53 18 -98t50.5 -78t76.5 -52t95 -19t95 19t76.5 52t50.5 78t18 98q0 52 -17.5 95.5t-49.5 75.5l45 45q41 -40 63.5 -95t22.5 -121t-23 -122t-63.5 -97t-96.5 -64.5t-121 -23.5
t-121 23.5t-96.5 64.5t-63.5 97t-23 122q0 31 7 62t23.5 63.5t45 67.5t70.5 75l77 73l-3 10l-94 -13h-91v65h283v-283z" />
    <glyph glyph-name="uni21C4" unicode="&#x21c4;" horiz-adv-x="780" 
d="M545 310l-46 46l64 64l76 57l-5 10l-103 -9h-496v64h496l102 -9l5 11l-75 56l-64 64l46 46l200 -200zM235 389l46 -46l-64 -64l-75 -56l5 -11l102 9h496v-64h-496l-103 9l-5 -10l76 -57l64 -64l-46 -46l-200 200z" />
    <glyph glyph-name="uni21C6" unicode="&#x21c6;" horiz-adv-x="780" 
d="M235 710l46 -46l-64 -64l-75 -56l5 -11l102 9h496v-64h-496l-103 9l-5 -10l76 -57l64 -64l-46 -46l-200 200zM545 -11l-46 46l64 64l76 57l-5 10l-103 -9h-496v64h496l102 -9l5 11l-75 56l-64 64l46 46l200 -200z" />
    <glyph glyph-name="partialdiff" unicode="&#x2202;" horiz-adv-x="532" 
d="M474 269q0 -75 -14.5 -128t-41.5 -87t-66 -50t-88 -16q-103 0 -156.5 66t-53.5 192t52.5 192t145.5 66q45 0 73.5 -23t45.5 -63h10q-9 45 -32 84t-57 73.5t-77 65t-91 57.5h119q30 -20 70 -51.5t76 -82t60.5 -122.5t24.5 -173zM264 56q61 0 94.5 34.5t33.5 112.5v86
q0 78 -33.5 112.5t-94.5 34.5t-94.5 -34.5t-33.5 -112.5v-86q0 -78 33.5 -112.5t94.5 -34.5z" />
    <glyph glyph-name="Delta" unicode="&#x2206;" horiz-adv-x="580" 
d="M44 68l200 630h92l200 -630v-68h-492v68zM338 451l-44 177h-10l-44 -177l-114 -381h326z" />
    <glyph glyph-name="product" unicode="&#x220f;" horiz-adv-x="637" 
d="M115 -200v828h-72v70h551v-70h-72v-828h-80v828h-247v-828h-80z" />
    <glyph glyph-name="summation" unicode="&#x2211;" horiz-adv-x="457" 
d="M424 -200h-406v68l232 377v8l-232 377v68h406v-70h-323l222 -360v-38l-222 -360h323v-70z" />
    <glyph glyph-name="minus" unicode="&#x2212;" 
d="M60 273v64h420v-64h-420z" />
    <glyph glyph-name="radical" unicode="&#x221a;" 
d="M227 0l-121 449h-87v67h143l69 -260l43 -193h10l43 193l116 444h74l-186 -700h-104z" />
    <glyph glyph-name="infinity" unicode="&#x221e;" horiz-adv-x="669" 
d="M176 117q-77 0 -119 49t-42 140t42 140t119 49q74 0 113 -35t61 -105h10q8 73 44.5 106.5t88.5 33.5q77 0 119 -49t42 -140t-42 -140t-119 -49q-74 0 -113 35t-61 105h-10q-8 -73 -44.5 -106.5t-88.5 -33.5zM176 181q47 0 76.5 29t44.5 97q-16 67 -45 95.5t-76 28.5
q-38 0 -61.5 -23.5t-23.5 -67.5v-68q0 -44 23.5 -67.5t61.5 -23.5zM493 181q38 0 61.5 23.5t23.5 67.5v68q0 44 -23.5 67.5t-61.5 23.5q-47 0 -76 -29t-45 -97q16 -67 45 -95.5t76 -28.5z" />
    <glyph glyph-name="integral" unicode="&#x222b;" horiz-adv-x="385" 
d="M44 -133h110v775q0 51 23.5 74.5t74.5 23.5h89v-67h-111v-775q0 -51 -23.5 -74.5t-74.5 -23.5h-88v67z" />
    <glyph glyph-name="approxequal" unicode="&#x2248;" 
d="M377 336q-33 0 -59.5 9.5t-57.5 25.5q-25 13 -52 24.5t-50 11.5t-39.5 -7t-34.5 -24l-33 41q19 26 45 40.5t67 14.5q33 0 59.5 -9.5t57.5 -25.5q25 -13 52 -24.5t50 -11.5t39.5 7t34.5 23l33 -40q-19 -26 -45 -40.5t-67 -14.5zM377 140q-33 0 -59.5 9.5t-57.5 25.5
q-25 13 -52 24.5t-50 11.5t-39.5 -7t-34.5 -24l-33 41q19 26 45 40.5t67 14.5q33 0 59.5 -9.5t57.5 -25.5q25 -13 52 -24.5t50 -11.5t39.5 7t34.5 23l33 -40q-19 -26 -45 -40.5t-67 -14.5z" />
    <glyph glyph-name="notequal" unicode="&#x2260;" 
d="M122 74l49 100h-111v64h143l65 134h-208v64h240l50 102h68l-50 -102h112v-64h-144l-65 -134h209v-64h-241l-49 -100h-68z" />
    <glyph glyph-name="lessequal" unicode="&#x2264;" 
d="M82 0v64h376v-64h-376zM458 511l-306 -151v-10l306 -151v-81l-376 198v78l376 198v-81z" />
    <glyph glyph-name="greaterequal" unicode="&#x2265;" 
d="M82 199l306 151v10l-306 151v81l376 -198v-78l-376 -198v81zM82 64h376v-64h-376v64z" />
    <glyph glyph-name="lozenge" unicode="&#x25ca;" 
d="M233 0l-191 349l191 349h74l191 -349l-191 -349h-74zM275 70l145 279l-145 279h-10l-145 -279l145 -279h10z" />
    <glyph glyph-name="uni2713" unicode="&#x2713;" horiz-adv-x="780" 
d="M405 0h-81l-217 488l64 28l145 -326l43 -120h10l43 120l227 508l64 -28z" />
    <glyph glyph-name="uni274C" unicode="&#x274c;" horiz-adv-x="780" 
d="M632 0l-242 297l-242 -297l-52 40l252 309l-252 309l52 40l242 -297l242 297l52 -40l-252 -309l252 -309z" />
    <glyph glyph-name="uni2B0E" unicode="&#x2b0e;" horiz-adv-x="780" 
d="M351 322l46 46l64 -64l57 -76l10 5l-9 103v214h-478v64h542v-278l-9 -102l11 -5l56 75l64 64l46 -46l-200 -200z" />
    <glyph glyph-name="uni2B0F" unicode="&#x2b0f;" horiz-adv-x="780" 
d="M751 426l-46 -46l-64 64l-56 75l-11 -5l9 -102v-278h-542v64h478v214l9 103l-10 5l-57 -76l-64 -64l-46 46l200 200z" />
    <glyph glyph-name="uni2B10" unicode="&#x2b10;" horiz-adv-x="780" 
d="M29 322l46 46l64 -64l56 -75l11 5l-9 102v278h542v-64h-478v-214l-9 -103l10 -5l57 76l64 64l46 -46l-200 -200z" />
    <glyph glyph-name="uni2B11" unicode="&#x2b11;" horiz-adv-x="780" 
d="M429 426l-46 -46l-64 64l-57 76l-10 -5l9 -103v-214h478v-64h-542v278l9 102l-11 5l-56 -75l-64 -64l-46 46l200 200z" />
    <glyph glyph-name="uniEBE7" unicode="&#xebe7;" horiz-adv-x="644" 
d="M488 160q-20 0 -34.5 11.5t-19.5 31.5l-38 142l121 -82q27 -19 27 -48q0 -23 -16.5 -39t-39.5 -16zM156 160q-23 0 -39.5 16t-16.5 39q0 29 27 48l121 82l-38 -142q-5 -20 -19.5 -31.5t-34.5 -11.5zM396 252h-148v37h148v-37zM396 178h-148v37h148v-37zM322 104
q-20 0 -37.5 10t-26.5 27h128q-9 -17 -26.5 -27t-37.5 -10zM322 363q20 0 37.5 -10t26.5 -27h-128q9 17 26.5 27t37.5 10zM364 373q-14 0 -23.5 9t-9.5 23t9.5 23t23.5 9t23.5 -9t9.5 -23t-9.5 -23t-23.5 -9zM280 373q-14 0 -23.5 9t-9.5 23t9.5 23t23.5 9t23.5 -9t9.5 -23
t-9.5 -23t-23.5 -9zM174 2v19h116l7 -19h-123zM347 2l7 19h116v-19h-123zM174 39v19h104l6 -19h-110zM360 39l6 19h104v-19h-110zM335 -35l6 19h92v-19h-98zM211 -35v19h92l6 -19h-98zM174 -183v19h93v-19h-93zM377 -183v19h93v-19h-93zM174 -220v19h93v-19h-93zM377 -220
v19h93v-19h-93zM279 -90h86l-6 -19h-74zM377 -109v19h56v-19h-56zM377 -72v19h56v-19h-56zM377 -146v19h56v-19h-56zM211 -109v19h56v-19h-56zM211 -72v19h56v-19h-56zM211 -146v19h56v-19h-56zM291 -127h62l-7 -19h-48zM273 -72l-6 19h48l7 -19h-49zM322 -72l7 19h48
l-6 -19h-49zM304 -164h36l-6 -19h-24zM316 -201h12l-6 -19zM285 586q0 16 10.5 26.5t26.5 10.5t26.5 -10.5t10.5 -26.5t-10.5 -26.5t-26.5 -10.5t-26.5 10.5t-10.5 26.5zM239 586q0 -35 24 -59t59 -24t59 24t24 59t-24 59t-59 24t-59 -24t-24 -59zM470 586
q-18 -45 -58 -73.5t-90 -28.5t-90 28.5t-58 73.5q18 45 58 73.5t90 28.5t90 -28.5t58 -73.5zM322 734q-42 0 -78 -18t-61 -47v28q21 38 57.5 60.5t81.5 22.5t81.5 -22.5t57.5 -60.5v-28q-25 29 -61 47t-78 18z" />
    <glyph glyph-name="uniECE0" unicode="&#xece0;" horiz-adv-x="1177" 
d="M1044 604q-45 0 -86 -15t-74 -42t-56 -63.5t-32 -79.5h209v-110h-209q9 -43 32 -79.5t56 -63.5t74 -42t86 -15q19 0 37 3v-107q-6 -1 -16.5 -1.5t-21.5 -0.5q-74 0 -139 28.5t-114 77.5t-77.5 114.5t-28.5 140.5t28.5 140.5t77.5 114.5t114 77.5t139 28.5q11 0 21.5 -0.5
t16.5 -1.5v-107q-18 3 -37 3zM170 349q0 -53 20 -99t54.5 -81t81 -55t98.5 -20q19 0 37 3v-107q-6 -1 -16.5 -1.5t-21.5 -0.5q-74 0 -139 28.5t-114 77.5t-77.5 114.5t-28.5 140.5t28.5 140.5t77.5 114.5t114 77.5t139 28.5q11 0 21.5 -0.5t16.5 -1.5v-107q-18 3 -37 3
q-52 0 -98.5 -20t-81 -55t-54.5 -81.5t-20 -98.5z" />
    <glyph glyph-name="uniEFCC" unicode="&#xefcc;" horiz-adv-x="1046" 
d="M563 349q0 -28 10 -52t27 -41.5t40.5 -27.5t49.5 -10q34 0 62 16t45 42l63 -45q-29 -41 -72.5 -64.5t-95.5 -23.5q-43 0 -80.5 16t-65.5 44t-44 65.5t-16 80.5t16 80.5t44 65.5t65.5 44t80.5 16q52 0 95.5 -23.5t72.5 -64.5l-63 -45q-17 26 -45 42t-62 16
q-26 0 -49.5 -10t-40.5 -27.5t-27 -41.5t-10 -52zM200 54l-72 -52v696h303l-61 -76h-170v-235h136q7 67 37.5 125.5t78.5 102t109.5 68t131.5 24.5q89 0 164 -40t125 -109l-63 -46q-18 25 -42 47t-53.5 38.5t-63 25.5t-69.5 9q-54 0 -104.5 -20.5t-89.5 -58t-62.5 -89.5
t-23.5 -115t23.5 -115t62.5 -89.5t89.5 -58t104.5 -20.5q36 0 69.5 9t63 25.5t53.5 38t42 47.5l63 -46q-50 -69 -125 -109t-164 -40q-70 0 -131.5 24.5t-109.5 68t-78.5 101.5t-37.5 126h-136v-257z" />
    <glyph glyph-name="dieresisacute" unicode="&#xf6d7;" horiz-adv-x="0" 
d="M14 698l-49 25l77 169l69 -36zM-90 598q-50 0 -50 40v18q0 40 50 40t50 -40v-18q0 -40 -50 -40zM90 598q-50 0 -50 40v18q0 40 50 40t50 -40v-18q0 -40 -50 -40z" />
    <glyph glyph-name="dieresisgrave" unicode="&#xf6d8;" horiz-adv-x="0" 
d="M-111 856l69 36l77 -169l-49 -25zM-90 598q-50 0 -50 40v18q0 40 50 40t50 -40v-18q0 -40 -50 -40zM90 598q-50 0 -50 40v18q0 40 50 40t50 -40v-18q0 -40 -50 -40z" />
    <glyph glyph-name="fl" unicode="&#xfb02;" horiz-adv-x="541" 
d="M101 449h-75v67h75v126q0 51 23.5 74.5t74.5 23.5h77v-67h-99v-157h99v-67h-99v-449h-76v449zM448 0q-41 0 -59.5 18.5t-18.5 59.5v662h76v-673h65v-67h-63z" />
    <glyph glyph-name="a.alt01" horiz-adv-x="524" 
d="M372 84h-10q-15 -51 -48.5 -73.5t-81.5 -22.5q-46 0 -81 19t-59 54t-36 85t-12 112t12 112t36 85t59 54t81 19q48 0 81.5 -22.5t48.5 -73.5h10v84h76v-516h-76v84zM255 56q24 0 45.5 7t37 20t25 31t9.5 40v208q0 22 -9.5 40t-25 31t-37 20t-45.5 7q-63 0 -96 -39.5
t-33 -110.5v-104q0 -71 33 -110.5t96 -39.5z" />
    <glyph glyph-name="g.alt01" horiz-adv-x="524" 
d="M448 0q0 -106 -54.5 -159t-154.5 -53q-57 0 -99 19.5t-69 51.5l45 52q23 -27 52.5 -41.5t70.5 -14.5q63 0 98 33.5t35 111.5v84h-10q-15 -51 -48.5 -73.5t-81.5 -22.5q-46 0 -81 19t-59 54t-36 85t-12 112t12 112t36 85t59 54t81 19q48 0 81.5 -22.5t48.5 -73.5h10v84h76
v-516zM255 56q24 0 45.5 7t37 20t25 31t9.5 40v208q0 22 -9.5 40t-25 31t-37 20t-45.5 7q-63 0 -96 -39.5t-33 -110.5v-104q0 -71 33 -110.5t96 -39.5z" />
    <glyph glyph-name="g.alt02" horiz-adv-x="480" 
d="M470 -58q0 -82 -55.5 -118t-171.5 -36q-111 0 -158.5 33t-47.5 95q0 42 21 66t54 30v14q-20 11 -31.5 28.5t-11.5 41.5q0 32 18.5 55t60.5 28v11q-40 20 -62.5 59.5t-22.5 99.5q0 88 48 133t129 45q41 0 72 -11h144v-61h-110v-8q34 -8 52.5 -34.5t18.5 -63.5
q0 -88 -48 -133t-129 -45q-24 0 -49 5q-28 -5 -42.5 -22.5t-14.5 -35.5q0 -20 14 -30t46 -10h113q87 0 125 -35t38 -101zM240 233q47 0 73 24t26 74v37q0 50 -26 74t-73 24t-73 -24t-26 -74v-37q0 -50 26 -74t73 -24zM399 -63q0 34 -21 51.5t-72 17.5h-157
q-23 -11 -32.5 -28t-9.5 -43q0 -39 24 -61.5t77 -22.5h66q62 0 93.5 20.5t31.5 65.5z" />
    <glyph glyph-name="zero.alt01" 
d="M270 -12q-57 0 -98 20t-67.5 63.5t-39.5 112t-13 165.5t13 165.5t39.5 112t67.5 63.5t98 20t98 -20t67.5 -63.5t39.5 -112t13 -165.5t-13 -165.5t-39.5 -112t-67.5 -63.5t-98 -20zM270 57q72 0 103 51.5t31 144.5v192q0 93 -31 144.5t-103 51.5t-103 -51.5t-31 -144.5
v-192q0 -93 31 -144.5t103 -51.5zM270 300q-50 0 -50 40v18q0 40 50 40t50 -40v-18q0 -40 -50 -40z" />
    <glyph glyph-name="zero.alt02" 
d="M270 -12q-57 0 -98 20t-67.5 63.5t-39.5 112t-13 165.5t13 165.5t39.5 112t67.5 63.5t98 20t98 -20t67.5 -63.5t39.5 -112t13 -165.5t-13 -165.5t-39.5 -112t-67.5 -63.5t-98 -20zM270 57q72 0 103 51.5t31 144.5v96l6 127h-8l-132 -173l-122 -152q16 -51 48 -72.5
t74 -21.5zM270 641q-72 0 -103 -51.5t-31 -144.5v-96l-6 -127h8l132 173l122 152q-16 51 -48 72.5t-74 21.5z" />
    <glyph glyph-name="aacute.alt01" horiz-adv-x="524" 
d="M372 84h-10q-15 -51 -48.5 -73.5t-81.5 -22.5q-46 0 -81 19t-59 54t-36 85t-12 112t12 112t36 85t59 54t81 19q48 0 81.5 -22.5t48.5 -73.5h10v84h76v-516h-76v84zM255 56q24 0 45.5 7t37 20t25 31t9.5 40v208q0 22 -9.5 40t-25 31t-37 20t-45.5 7q-63 0 -96 -39.5
t-33 -110.5v-104q0 -71 33 -110.5t96 -39.5zM260 585l-49 25l77 169l69 -36z" />
    <glyph glyph-name="abreve.alt01" horiz-adv-x="524" 
d="M372 84h-10q-15 -51 -48.5 -73.5t-81.5 -22.5q-46 0 -81 19t-59 54t-36 85t-12 112t12 112t36 85t59 54t81 19q48 0 81.5 -22.5t48.5 -73.5h10v84h76v-516h-76v84zM255 56q24 0 45.5 7t37 20t25 31t9.5 40v208q0 22 -9.5 40t-25 31t-37 20t-45.5 7q-63 0 -96 -39.5
t-33 -110.5v-104q0 -71 33 -110.5t96 -39.5zM253 596q-53 0 -87 30t-54 96l43 21l18 -33q15 -29 33 -40.5t47 -11.5t47 11.5t33 40.5l18 33l43 -21q-20 -66 -54 -96t-87 -30z" />
    <glyph glyph-name="acircumflex.alt01" horiz-adv-x="524" 
d="M372 84h-10q-15 -51 -48.5 -73.5t-81.5 -22.5q-46 0 -81 19t-59 54t-36 85t-12 112t12 112t36 85t59 54t81 19q48 0 81.5 -22.5t48.5 -73.5h10v84h76v-516h-76v84zM255 56q24 0 45.5 7t37 20t25 31t9.5 40v208q0 22 -9.5 40t-25 31t-37 20t-45.5 7q-63 0 -96 -39.5
t-33 -110.5v-104q0 -71 33 -110.5t96 -39.5zM299 765l101 -144l-41 -30l-106 118l-106 -118l-41 30l101 144h92z" />
    <glyph glyph-name="adieresis.alt01" horiz-adv-x="524" 
d="M372 84h-10q-15 -51 -48.5 -73.5t-81.5 -22.5q-46 0 -81 19t-59 54t-36 85t-12 112t12 112t36 85t59 54t81 19q48 0 81.5 -22.5t48.5 -73.5h10v84h76v-516h-76v84zM255 56q24 0 45.5 7t37 20t25 31t9.5 40v208q0 22 -9.5 40t-25 31t-37 20t-45.5 7q-63 0 -96 -39.5
t-33 -110.5v-104q0 -71 33 -110.5t96 -39.5zM167 620q-50 0 -50 40v18q0 40 50 40t50 -40v-18q0 -40 -50 -40zM339 620q-50 0 -50 40v18q0 40 50 40t50 -40v-18q0 -40 -50 -40z" />
    <glyph glyph-name="uni1EA1.alt01" horiz-adv-x="524" 
d="M372 84h-10q-15 -51 -48.5 -73.5t-81.5 -22.5q-46 0 -81 19t-59 54t-36 85t-12 112t12 112t36 85t59 54t81 19q48 0 81.5 -22.5t48.5 -73.5h10v84h76v-516h-76v84zM255 56q24 0 45.5 7t37 20t25 31t9.5 40v208q0 22 -9.5 40t-25 31t-37 20t-45.5 7q-63 0 -96 -39.5
t-33 -110.5v-104q0 -71 33 -110.5t96 -39.5zM230 -166q-50 0 -50 40v18q0 40 50 40t50 -40v-18q0 -40 -50 -40z" />
    <glyph glyph-name="agrave.alt01" horiz-adv-x="524" 
d="M372 84h-10q-15 -51 -48.5 -73.5t-81.5 -22.5q-46 0 -81 19t-59 54t-36 85t-12 112t12 112t36 85t59 54t81 19q48 0 81.5 -22.5t48.5 -73.5h10v84h76v-516h-76v84zM255 56q24 0 45.5 7t37 20t25 31t9.5 40v208q0 22 -9.5 40t-25 31t-37 20t-45.5 7q-63 0 -96 -39.5
t-33 -110.5v-104q0 -71 33 -110.5t96 -39.5zM149 743l69 36l77 -169l-49 -25z" />
    <glyph glyph-name="uni1EA3.alt01" horiz-adv-x="524" 
d="M372 84h-10q-15 -51 -48.5 -73.5t-81.5 -22.5q-46 0 -81 19t-59 54t-36 85t-12 112t12 112t36 85t59 54t81 19q48 0 81.5 -22.5t48.5 -73.5h10v84h76v-516h-76v84zM255 56q24 0 45.5 7t37 20t25 31t9.5 40v208q0 22 -9.5 40t-25 31t-37 20t-45.5 7q-63 0 -96 -39.5
t-33 -110.5v-104q0 -71 33 -110.5t96 -39.5zM174 765h106q59 0 59 -52q0 -21 -8.5 -45.5t-28.5 -50.5l-29 -40l-43 23l50 103h-106v62z" />
    <glyph glyph-name="amacron.alt01" horiz-adv-x="524" 
d="M372 84h-10q-15 -51 -48.5 -73.5t-81.5 -22.5q-46 0 -81 19t-59 54t-36 85t-12 112t12 112t36 85t59 54t81 19q48 0 81.5 -22.5t48.5 -73.5h10v84h76v-516h-76v84zM255 56q24 0 45.5 7t37 20t25 31t9.5 40v208q0 22 -9.5 40t-25 31t-37 20t-45.5 7q-63 0 -96 -39.5
t-33 -110.5v-104q0 -71 33 -110.5t96 -39.5zM126 703h254v-64h-254v64z" />
    <glyph glyph-name="aogonek.alt01" horiz-adv-x="524" 
d="M468 -168q-10 -15 -32.5 -27t-51.5 -12q-41 0 -68 17t-27 52q0 42 32 73.5t78 55.5l-2 9h-25v84h-10q-15 -51 -48.5 -73.5t-81.5 -22.5q-46 0 -81 19t-59 54t-36 85t-12 112t12 112t36 85t59 54t81 19q48 0 81.5 -22.5t48.5 -73.5h10v84h76v-516q-53 -38 -74.5 -64.5
t-21.5 -55.5q0 -18 10.5 -26t25.5 -8q29 0 45 22zM255 56q24 0 45.5 7t37 20t25 31t9.5 40v208q0 22 -9.5 40t-25 31t-37 20t-45.5 7q-63 0 -96 -39.5t-33 -110.5v-104q0 -71 33 -110.5t96 -39.5z" />
    <glyph glyph-name="aring.alt01" horiz-adv-x="524" 
d="M372 84h-10q-15 -51 -48.5 -73.5t-81.5 -22.5q-46 0 -81 19t-59 54t-36 85t-12 112t12 112t36 85t59 54t81 19q48 0 81.5 -22.5t48.5 -73.5h10v84h76v-516h-76v84zM255 56q24 0 45.5 7t37 20t25 31t9.5 40v208q0 22 -9.5 40t-25 31t-37 20t-45.5 7q-63 0 -96 -39.5
t-33 -110.5v-104q0 -71 33 -110.5t96 -39.5zM253 576q-51 0 -80.5 32t-29.5 83t29.5 83t80.5 32t80.5 -32t29.5 -83t-29.5 -83t-80.5 -32zM253 623q25 0 39.5 13t14.5 38v34q0 25 -14.5 38t-39.5 13t-39.5 -13t-14.5 -38v-34q0 -25 14.5 -38t39.5 -13z" />
    <glyph glyph-name="aringacute.alt01" horiz-adv-x="524" 
d="M372 84h-10q-15 -51 -48.5 -73.5t-81.5 -22.5q-46 0 -81 19t-59 54t-36 85t-12 112t12 112t36 85t59 54t81 19q48 0 81.5 -22.5t48.5 -73.5h10v84h76v-516h-76v84zM255 56q24 0 45.5 7t37 20t25 31t9.5 40v208q0 22 -9.5 40t-25 31t-37 20t-45.5 7q-63 0 -96 -39.5
t-33 -110.5v-104q0 -71 33 -110.5t96 -39.5zM262 814l-38 26l71 116l55 -36zM253 566q-51 0 -80.5 32t-29.5 83t29.5 83t80.5 32t80.5 -32t29.5 -83t-29.5 -83t-80.5 -32zM253 613q25 0 39.5 13t14.5 38v34q0 25 -14.5 38t-39.5 13t-39.5 -13t-14.5 -38v-34q0 -25 14.5 -38
t39.5 -13z" />
    <glyph glyph-name="atilde.alt01" horiz-adv-x="524" 
d="M372 84h-10q-15 -51 -48.5 -73.5t-81.5 -22.5q-46 0 -81 19t-59 54t-36 85t-12 112t12 112t36 85t59 54t81 19q48 0 81.5 -22.5t48.5 -73.5h10v84h76v-516h-76v84zM255 56q24 0 45.5 7t37 20t25 31t9.5 40v208q0 22 -9.5 40t-25 31t-37 20t-45.5 7q-63 0 -96 -39.5
t-33 -110.5v-104q0 -71 33 -110.5t96 -39.5zM320 613q-17 0 -33 6t-41 20q-23 14 -37 19.5t-25 5.5q-15 0 -27 -7.5t-26 -20.5l-30 38q32 52 85 52q17 0 33 -6t41 -20q23 -14 37 -19.5t25 -5.5q15 0 27 7.5t26 20.5l30 -38q-32 -52 -85 -52z" />
    <glyph glyph-name="uni1EAF.alt01" horiz-adv-x="524" 
d="M372 84h-10q-15 -51 -48.5 -73.5t-81.5 -22.5q-46 0 -81 19t-59 54t-36 85t-12 112t12 112t36 85t59 54t81 19q48 0 81.5 -22.5t48.5 -73.5h10v84h76v-516h-76v84zM255 56q24 0 45.5 7t37 20t25 31t9.5 40v208q0 22 -9.5 40t-25 31t-37 20t-45.5 7q-63 0 -96 -39.5
t-33 -110.5v-104q0 -71 33 -110.5t96 -39.5zM252 585q-36 0 -60 12t-40 31t-25.5 41t-15.5 43l42 21l18 -33q12 -23 30.5 -41t50.5 -18t50.5 18t30.5 41l18 33l42 -21q-6 -21 -15.5 -43t-25.5 -41t-40 -31t-60 -12zM255 698l-46 23l83 170l65 -32z" />
    <glyph glyph-name="uni1EB7.alt01" horiz-adv-x="524" 
d="M372 84h-10q-15 -51 -48.5 -73.5t-81.5 -22.5q-46 0 -81 19t-59 54t-36 85t-12 112t12 112t36 85t59 54t81 19q48 0 81.5 -22.5t48.5 -73.5h10v84h76v-516h-76v84zM255 56q24 0 45.5 7t37 20t25 31t9.5 40v208q0 22 -9.5 40t-25 31t-37 20t-45.5 7q-63 0 -96 -39.5
t-33 -110.5v-104q0 -71 33 -110.5t96 -39.5zM253 596q-53 0 -87 30t-54 96l43 21l18 -33q15 -29 33 -40.5t47 -11.5t47 11.5t33 40.5l18 33l43 -21q-20 -66 -54 -96t-87 -30zM230 -166q-50 0 -50 40v18q0 40 50 40t50 -40v-18q0 -40 -50 -40z" />
    <glyph glyph-name="uni1EB1.alt01" horiz-adv-x="524" 
d="M372 84h-10q-15 -51 -48.5 -73.5t-81.5 -22.5q-46 0 -81 19t-59 54t-36 85t-12 112t12 112t36 85t59 54t81 19q48 0 81.5 -22.5t48.5 -73.5h10v84h76v-516h-76v84zM255 56q24 0 45.5 7t37 20t25 31t9.5 40v208q0 22 -9.5 40t-25 31t-37 20t-45.5 7q-63 0 -96 -39.5
t-33 -110.5v-104q0 -71 33 -110.5t96 -39.5zM252 585q-36 0 -60 12t-40 31t-25.5 41t-15.5 43l42 21l18 -33q12 -23 30.5 -41t50.5 -18t50.5 18t30.5 41l18 33l42 -21q-6 -21 -15.5 -43t-25.5 -41t-40 -31t-60 -12zM147 859l65 32l83 -170l-46 -23z" />
    <glyph glyph-name="uni1EB3.alt01" horiz-adv-x="524" 
d="M372 84h-10q-15 -51 -48.5 -73.5t-81.5 -22.5q-46 0 -81 19t-59 54t-36 85t-12 112t12 112t36 85t59 54t81 19q48 0 81.5 -22.5t48.5 -73.5h10v84h76v-516h-76v84zM255 56q24 0 45.5 7t37 20t25 31t9.5 40v208q0 22 -9.5 40t-25 31t-37 20t-45.5 7q-63 0 -96 -39.5
t-33 -110.5v-104q0 -71 33 -110.5t96 -39.5zM252 585q-36 0 -60 12t-40 31t-25.5 41t-15.5 43l42 21l18 -33q12 -23 30.5 -41t50.5 -18t50.5 18t30.5 41l18 33l42 -21q-6 -21 -15.5 -43t-25.5 -41t-40 -31t-60 -12zM170 880h94q59 0 59 -52q0 -21 -8.5 -45.5t-28.5 -50.5
l-29 -40l-41 22l51 106h-97v60z" />
    <glyph glyph-name="uni1EB5.alt01" horiz-adv-x="524" 
d="M372 84h-10q-15 -51 -48.5 -73.5t-81.5 -22.5q-46 0 -81 19t-59 54t-36 85t-12 112t12 112t36 85t59 54t81 19q48 0 81.5 -22.5t48.5 -73.5h10v84h76v-516h-76v84zM255 56q24 0 45.5 7t37 20t25 31t9.5 40v208q0 22 -9.5 40t-25 31t-37 20t-45.5 7q-63 0 -96 -39.5
t-33 -110.5v-104q0 -71 33 -110.5t96 -39.5zM252 585q-36 0 -60 12t-40 31t-25.5 41t-15.5 43l42 21l18 -33q12 -23 30.5 -41t50.5 -18t50.5 18t30.5 41l18 33l42 -21q-6 -21 -15.5 -43t-25.5 -41t-40 -31t-60 -12zM317 770q-23 0 -40.5 9t-31.5 17q-21 13 -35 19t-25 6
q-15 0 -27 -7.5t-26 -20.5l-30 38q12 20 32.5 36t52.5 16q23 0 40.5 -9t31.5 -17q21 -13 35 -19t25 -6q15 0 27 7.5t26 20.5l30 -38q-12 -20 -32.5 -36t-52.5 -16z" />
    <glyph glyph-name="uni1EA5.alt01" horiz-adv-x="524" 
d="M372 84h-10q-15 -51 -48.5 -73.5t-81.5 -22.5q-46 0 -81 19t-59 54t-36 85t-12 112t12 112t36 85t59 54t81 19q48 0 81.5 -22.5t48.5 -73.5h10v84h76v-516h-76v84zM255 56q24 0 45.5 7t37 20t25 31t9.5 40v208q0 22 -9.5 40t-25 31t-37 20t-45.5 7q-63 0 -96 -39.5
t-33 -110.5v-104q0 -71 33 -110.5t96 -39.5zM396 698l-49 25l77 169l69 -36zM298 745l102 -134l-40 -30l-108 108l-108 -108l-40 30l102 134h92z" />
    <glyph glyph-name="uni1EAD.alt01" horiz-adv-x="524" 
d="M372 84h-10q-15 -51 -48.5 -73.5t-81.5 -22.5q-46 0 -81 19t-59 54t-36 85t-12 112t12 112t36 85t59 54t81 19q48 0 81.5 -22.5t48.5 -73.5h10v84h76v-516h-76v84zM255 56q24 0 45.5 7t37 20t25 31t9.5 40v208q0 22 -9.5 40t-25 31t-37 20t-45.5 7q-63 0 -96 -39.5
t-33 -110.5v-104q0 -71 33 -110.5t96 -39.5zM299 765l101 -144l-41 -30l-106 118l-106 -118l-41 30l101 144h92zM230 -166q-50 0 -50 40v18q0 40 50 40t50 -40v-18q0 -40 -50 -40z" />
    <glyph glyph-name="uni1EA7.alt01" horiz-adv-x="524" 
d="M372 84h-10q-15 -51 -48.5 -73.5t-81.5 -22.5q-46 0 -81 19t-59 54t-36 85t-12 112t12 112t36 85t59 54t81 19q48 0 81.5 -22.5t48.5 -73.5h10v84h76v-516h-76v84zM255 56q24 0 45.5 7t37 20t25 31t9.5 40v208q0 22 -9.5 40t-25 31t-37 20t-45.5 7q-63 0 -96 -39.5
t-33 -110.5v-104q0 -71 33 -110.5t96 -39.5zM11 856l69 36l77 -169l-49 -25zM298 745l102 -134l-40 -30l-108 108l-108 -108l-40 30l102 134h92z" />
    <glyph glyph-name="uni1EA9.alt01" horiz-adv-x="524" 
d="M372 84h-10q-15 -51 -48.5 -73.5t-81.5 -22.5q-46 0 -81 19t-59 54t-36 85t-12 112t12 112t36 85t59 54t81 19q48 0 81.5 -22.5t48.5 -73.5h10v84h76v-516h-76v84zM255 56q24 0 45.5 7t37 20t25 31t9.5 40v208q0 22 -9.5 40t-25 31t-37 20t-45.5 7q-63 0 -96 -39.5
t-33 -110.5v-104q0 -71 33 -110.5t96 -39.5zM310 880h94q59 0 59 -52q0 -21 -8.5 -45.5t-28.5 -50.5l-29 -40l-41 22l51 106h-97v60zM298 745l102 -134l-40 -30l-108 108l-108 -108l-40 30l102 134h92z" />
    <glyph glyph-name="uni1EAB.alt01" horiz-adv-x="524" 
d="M372 84h-10q-15 -51 -48.5 -73.5t-81.5 -22.5q-46 0 -81 19t-59 54t-36 85t-12 112t12 112t36 85t59 54t81 19q48 0 81.5 -22.5t48.5 -73.5h10v84h76v-516h-76v84zM255 56q24 0 45.5 7t37 20t25 31t9.5 40v208q0 22 -9.5 40t-25 31t-37 20t-45.5 7q-63 0 -96 -39.5
t-33 -110.5v-104q0 -71 33 -110.5t96 -39.5zM187 883q23 0 40.5 -9t31.5 -17q21 -13 35 -19t25 -6q15 0 27 7.5t26 20.5l30 -38q-12 -20 -32.5 -36t-52.5 -16q-23 0 -40.5 9t-31.5 17q-21 13 -35 19t-25 6q-15 0 -27 -7.5t-26 -20.5l-30 38q12 20 32.5 36t52.5 16zM298 745
l102 -134l-40 -30l-108 108l-108 -108l-40 30l102 134h92z" />
    <glyph glyph-name="gbreve.alt01" horiz-adv-x="524" 
d="M448 0q0 -106 -54.5 -159t-154.5 -53q-57 0 -99 19.5t-69 51.5l45 52q23 -27 52.5 -41.5t70.5 -14.5q63 0 98 33.5t35 111.5v84h-10q-15 -51 -48.5 -73.5t-81.5 -22.5q-46 0 -81 19t-59 54t-36 85t-12 112t12 112t36 85t59 54t81 19q48 0 81.5 -22.5t48.5 -73.5h10v84h76
v-516zM255 56q24 0 45.5 7t37 20t25 31t9.5 40v208q0 22 -9.5 40t-25 31t-37 20t-45.5 7q-63 0 -96 -39.5t-33 -110.5v-104q0 -71 33 -110.5t96 -39.5zM252 596q-53 0 -87 30t-54 96l43 21l18 -33q15 -29 33 -40.5t47 -11.5t47 11.5t33 40.5l18 33l43 -21q-20 -66 -54 -96
t-87 -30z" />
    <glyph glyph-name="gcircumflex.alt01" horiz-adv-x="524" 
d="M448 0q0 -106 -54.5 -159t-154.5 -53q-57 0 -99 19.5t-69 51.5l45 52q23 -27 52.5 -41.5t70.5 -14.5q63 0 98 33.5t35 111.5v84h-10q-15 -51 -48.5 -73.5t-81.5 -22.5q-46 0 -81 19t-59 54t-36 85t-12 112t12 112t36 85t59 54t81 19q48 0 81.5 -22.5t48.5 -73.5h10v84h76
v-516zM255 56q24 0 45.5 7t37 20t25 31t9.5 40v208q0 22 -9.5 40t-25 31t-37 20t-45.5 7q-63 0 -96 -39.5t-33 -110.5v-104q0 -71 33 -110.5t96 -39.5zM298 765l101 -144l-41 -30l-106 118l-106 -118l-41 30l101 144h92z" />
    <glyph glyph-name="gcommaaccent.alt01" horiz-adv-x="524" 
d="M448 0q0 -106 -54.5 -159t-154.5 -53q-57 0 -99 19.5t-69 51.5l45 52q23 -27 52.5 -41.5t70.5 -14.5q63 0 98 33.5t35 111.5v84h-10q-15 -51 -48.5 -73.5t-81.5 -22.5q-46 0 -81 19t-59 54t-36 85t-12 112t12 112t36 85t59 54t81 19q48 0 81.5 -22.5t48.5 -73.5h10v84h76
v-516zM255 56q24 0 45.5 7t37 20t25 31t9.5 40v208q0 22 -9.5 40t-25 31t-37 20t-45.5 7q-63 0 -96 -39.5t-33 -110.5v-104q0 -71 33 -110.5t96 -39.5zM252 596q-50 0 -50 40v18q0 35 17 66t40 54h54q-20 -23 -32.5 -40.5t-18.5 -40.5q20 -2 30 -12t10 -27v-18
q0 -40 -50 -40z" />
    <glyph glyph-name="gdotaccent.alt01" horiz-adv-x="524" 
d="M448 0q0 -106 -54.5 -159t-154.5 -53q-57 0 -99 19.5t-69 51.5l45 52q23 -27 52.5 -41.5t70.5 -14.5q63 0 98 33.5t35 111.5v84h-10q-15 -51 -48.5 -73.5t-81.5 -22.5q-46 0 -81 19t-59 54t-36 85t-12 112t12 112t36 85t59 54t81 19q48 0 81.5 -22.5t48.5 -73.5h10v84h76
v-516zM255 56q24 0 45.5 7t37 20t25 31t9.5 40v208q0 22 -9.5 40t-25 31t-37 20t-45.5 7q-63 0 -96 -39.5t-33 -110.5v-104q0 -71 33 -110.5t96 -39.5zM252 618q-50 0 -50 40v18q0 40 50 40t50 -40v-18q0 -40 -50 -40z" />
    <glyph glyph-name="ijacute" horiz-adv-x="456" 
d="M76 0v516h76v-516h-76zM228 -133h76v649h76v-618q0 -51 -23.5 -74.5t-74.5 -23.5h-54v67zM349 585l-49 25l77 169l69 -36zM122 585l-49 25l77 169l69 -36z" />
    <glyph glyph-name="jacute" horiz-adv-x="228" 
d="M0 -133h76v649h76v-618q0 -51 -23.5 -74.5t-74.5 -23.5h-54v67zM122 585l-49 25l77 169l69 -36z" />
    <glyph glyph-name="germandbls.alt01" horiz-adv-x="505" 
d="M76 0v642q0 51 23.5 74.5t74.5 23.5h122v-67h-144v-157h305v-58l-157 -243q46 -2 81 -13.5t59 -34.5t36 -60t12 -89q0 -58 -15 -99t-43 -67.5t-67.5 -39t-88.5 -12.5h-70v67h70q66 0 99 29.5t33 95.5v36q0 66 -33 95.5t-99 29.5h-46v68l148 228h-224v-449h-76z" />
    <glyph glyph-name="IJacute" horiz-adv-x="582" 
d="M503 698v-508q0 -47 -15.5 -84t-43 -63.5t-66.5 -40.5t-86 -14q-93 0 -145 45t-65 119l72 18q10 -49 41.5 -80t96.5 -31q63 0 97 36t34 110v423h-132v70h212zM78 698h80v-408h-80v408zM126 755l-49 25l77 169l69 -36zM404 755l-49 25l77 169l69 -36z" />
    <glyph glyph-name="Jacute" horiz-adv-x="462" 
d="M384 698v-538q0 -40 -13 -71.5t-37 -54t-57.5 -34.5t-73.5 -12q-80 0 -123.5 42.5t-56.5 111.5l72 18q9 -45 33 -73t75 -28q48 0 74.5 28.5t26.5 87.5v453h-214v70h294zM247 755l-49 25l77 169l69 -36z" />
    <glyph glyph-name="tilde.alt01" 
d="M326 618q-21 0 -35.5 6.5t-26.5 14.5q-17 11 -27.5 15.5t-23.5 4.5q-25 0 -51 -26l-29 38q31 51 81 51q21 0 35.5 -6.5t26.5 -14.5q17 -11 27.5 -15.5t23.5 -4.5q25 0 51 26l29 -38q-31 -51 -81 -51z" />
    <glyph glyph-name="macron.alt01" 
d="M149 703h242v-64h-242v64z" />
    <glyph glyph-name="dieresis.alt01" 
d="M188 620q-50 0 -50 40v18q0 40 50 40t50 -40v-18q0 -40 -50 -40zM352 620q-50 0 -50 40v18q0 40 50 40t50 -40v-18q0 -40 -50 -40z" />
    <glyph glyph-name="circumflex.alt01" 
d="M316 765l88 -144l-41 -30l-93 118l-93 -118l-41 30l88 144h92z" />
    <glyph glyph-name="breve.alt01" 
d="M270 596q-51 0 -80 27.5t-46 98.5l43 19l12 -32q19 -51 71 -51q51 0 71 51l12 32l43 -19q-17 -71 -46 -98.5t-80 -27.5z" />
    <glyph glyph-name="ringacute" 
d="M279 814l-38 26l71 116l55 -36zM270 566q-51 0 -80.5 32t-29.5 83t29.5 83t80.5 32t80.5 -32t29.5 -83t-29.5 -83t-80.5 -32zM270 613q25 0 39.5 13t14.5 38v34q0 25 -14.5 38t-39.5 13t-39.5 -13t-14.5 -38v-34q0 -25 14.5 -38t39.5 -13z" />
    <glyph glyph-name="breveacute" horiz-adv-x="0" 
d="M0 585q-36 0 -60 12t-40 31t-25.5 41t-15.5 43l42 21l18 -33q12 -23 30.5 -41t50.5 -18t50.5 18t30.5 41l18 33l42 -21q-6 -21 -15.5 -43t-25.5 -41t-40 -31t-60 -12zM3 698l-46 23l83 170l65 -32z" />
    <glyph glyph-name="brevegrave" horiz-adv-x="0" 
d="M0 585q-36 0 -60 12t-40 31t-25.5 41t-15.5 43l42 21l18 -33q12 -23 30.5 -41t50.5 -18t50.5 18t30.5 41l18 33l42 -21q-6 -21 -15.5 -43t-25.5 -41t-40 -31t-60 -12zM-105 859l65 32l83 -170l-46 -23z" />
    <glyph glyph-name="brevehook" horiz-adv-x="0" 
d="M0 585q-36 0 -60 12t-40 31t-25.5 41t-15.5 43l42 21l18 -33q12 -23 30.5 -41t50.5 -18t50.5 18t30.5 41l18 33l42 -21q-6 -21 -15.5 -43t-25.5 -41t-40 -31t-60 -12zM-82 880h94q59 0 59 -52q0 -21 -8.5 -45.5t-28.5 -50.5l-29 -40l-41 22l51 106h-97v60z" />
    <glyph glyph-name="brevetilde" horiz-adv-x="0" 
d="M0 585q-36 0 -60 12t-40 31t-25.5 41t-15.5 43l42 21l18 -33q12 -23 30.5 -41t50.5 -18t50.5 18t30.5 41l18 33l42 -21q-6 -21 -15.5 -43t-25.5 -41t-40 -31t-60 -12zM65 770q-23 0 -40.5 9t-31.5 17q-21 13 -35 19t-25 6q-15 0 -27 -7.5t-26 -20.5l-30 38q12 20 32.5 36
t52.5 16q23 0 40.5 -9t31.5 -17q21 -13 35 -19t25 -6q15 0 27 7.5t26 20.5l30 -38q-12 -20 -32.5 -36t-52.5 -16z" />
    <glyph glyph-name="dieresiscaron" horiz-adv-x="0" 
d="M-46 725l-102 134l40 30l108 -108l108 108l40 -30l-102 -134h-92zM-90 598q-50 0 -50 40v18q0 40 50 40t50 -40v-18q0 -40 -50 -40zM90 598q-50 0 -50 40v18q0 40 50 40t50 -40v-18q0 -40 -50 -40z" />
    <glyph glyph-name="circumflexacute" horiz-adv-x="0" 
d="M144 698l-49 25l77 169l69 -36zM46 745l102 -134l-40 -30l-108 108l-108 -108l-40 30l102 134h92z" />
    </font>
</defs>
</svg>
